<?xml version="1.0" standalone="no"?>
<!DOCTYPE svg PUBLIC "-//W3C//DTD SVG 1.1//EN" "http://www.w3.org/Graphics/SVG/1.1/DTD/svg11.dtd">
<svg xmlns="http://www.w3.org/2000/svg">
<defs >
<font id="Eczar" horiz-adv-x="605" ><font-face
    font-family="Eczar Medium"
    units-per-em="1000"
    panose-1="2 0 6 3 4 3 0 0 0 4"
    ascent="1143"
    descent="-634"
    alphabetic="0" />
<glyph unicode=" " glyph-name="space" horiz-adv-x="265" />
<glyph unicode="!" glyph-name="exclam" horiz-adv-x="314" d="M82 656Q111 676 160 676Q213 676 233 654L195 224H118L82 656ZM153 144Q223 116 235 62Q218 5 166 -20Q106 -7 80 49Q90 111 153 144Z" />
<glyph unicode="&quot;" glyph-name="quotedbl" horiz-adv-x="376" d="M22 462Q61 567 64 665L97 694L182 676L180 654Q160 530 99 437L22 462ZM211 462Q250 567 253 665L286 694L371 676L369 654Q349 530 288 437L211 462Z" />
<glyph unicode="#" glyph-name="numbersign" horiz-adv-x="622" d="M463 345L440 196H535V133H431L409 -10L337 0L357 133H226L204 -10L132 0L152 133H58V196H162L185 345H87V407H194L213 530L285 521L268 407H399L418 530L490 521L473 407H564V345H463ZM390 345H258L235
196H367L390 345Z" />
<glyph unicode="$" glyph-name="dollar" horiz-adv-x="553" d="M513 177Q513 102 465 52T340 -14V-145H257V-19Q202 -16 145 1T54 47L55 50L54 85Q54 162 67 224H130L162 92Q225 54 312 54L334 55Q390 83 390 148Q390 204 322 243L164 324Q57 387 57 485Q57 562
113 611T257 671V785H339V672Q406 666 483 641Q488 557 470 464H403L384 568Q328 601 252 601L222 600Q175 571 175 514Q175 461 247 423L397 349Q513 284 513 177Z" />
<glyph unicode="%" glyph-name="percent" horiz-adv-x="826" d="M54 499T98 546T201 594Q261 594 305 546T349 431Q349 367 308 323T206 278Q144 278 99 323T54 434ZM600 589L657 542L206 -29L149 18L600 589ZM230 345Q267 376 267 432Q267 470 247 497T191 524L166
521Q133 490 133 436Q133 398 153 371T213 344L230 345ZM476 136Q476 202 519 249T623 296Q684 296 727 248T771 134Q771 70 731 25T628 -20T521 25T476 136ZM653 48Q690 77 690 134Q690 172 670 199T615 227L589 223Q556 192 556 139Q556 101 576 74T636 47L653
48Z" />
<glyph unicode="&amp;" glyph-name="ampersand" horiz-adv-x="678" d="M674 324Q630 349 603 359T539 368Q576 295 576 222Q576 113 500 44T300 -26Q180 -26 100 37T19 197Q19 254 49 298T129 364Q40 411 40 501Q40 573 100 620T259 668Q351 668 451 628L414 525L224
592Q191 577 173 548T155 484Q155 430 196 393L302 362L290 304Q220 305 178 268T136 174Q136 114 182 81T297 47Q353 47 399 68Q469 118 469 211Q469 278 435 338L368 300L337 356Q519 463 604 463Q658 463 703 427L674 324Z" />
<glyph unicode="&apos;" glyph-name="quotesingle" horiz-adv-x="175" d="M-23 516Q15 618 15 717L48 746L133 730Q124 604 53 491L-23 516Z" />
<glyph unicode="(" glyph-name="parenleft" horiz-adv-x="303" d="M199 -155Q26 71 26 297T208 732L276 696Q147 500 147 302Q147 100 269 -118L199 -155Z" />
<glyph unicode=")" glyph-name="parenright" horiz-adv-x="302" d="M34 -118Q156 100 156 302Q156 500 27 696L95 732Q277 523 277 297T104 -155L34 -118Z" />
<glyph unicode="*" glyph-name="asterisk" horiz-adv-x="385" d="M179 618L142 597L87 708L157 762L179 618ZM214 599L183 628L271 715L344 664L214 599ZM155 589L163 548L40 529L12 614L155 589ZM212 561L230 599L340 543L314 459L212 561ZM174 553L215 548L196
425L107 424L174 553Z" />
<glyph unicode="+" glyph-name="plus" horiz-adv-x="571" d="M513 202H329V8H242V202H58V279H242V474H329V279H513V202Z" />
<glyph unicode="," glyph-name="comma" horiz-adv-x="265" d="M44 -102Q108 -49 112 7L60 49Q70 110 130 140Q210 113 210 36Q210 -13 174 -63T78 -145L44 -102Z" />
<glyph unicode="-" glyph-name="hyphen" horiz-adv-x="390" d="M31 303L44 331H315L353 267L340 240H70L31 303Z" />
<glyph unicode="." glyph-name="period" horiz-adv-x="230" d="M167 -36Q113 -13 86 27Q116 87 152 107Q194 90 230 44Q212 -5 167 -36Z" />
<glyph unicode="/" glyph-name="slash" horiz-adv-x="409" d="M333 715L410 682L104 -124L26 -93L333 715Z" />
<glyph unicode="0" glyph-name="zero" horiz-adv-x="577" d="M39 319Q39 468 111 565T297 663Q406 663 471 575T536 338Q536 182 468 85T286 -12Q176 -12 108 80T39 319ZM233 582Q197 547 179 474T160 332Q160 219 200 141T304 63Q323 63 341 70Q379 106 396 177T414
324Q414 434 378 510T273 587Q252 587 233 582Z" />
<glyph unicode="1" glyph-name="one" horiz-adv-x="423" d="M409 50L404 0H40L34 34Q87 57 171 80V538L50 484L20 536L232 670L288 636V67L409 50Z" />
<glyph unicode="2" glyph-name="two" horiz-adv-x="563" d="M512 179Q503 75 482 0L476 2V0H60L41 73L265 321Q355 425 355 494Q355 534 330 563T251 593Q219 593 172 582L143 438L69 439Q57 496 57 568L58 605L57 606Q165 670 273 670Q360 670 419 617T479 486Q479
432 448 381T343 251L181 81L185 73L402 92L450 191L512 179Z" />
<glyph unicode="3" glyph-name="three" horiz-adv-x="551" d="M348 350Q412 339 456 288T500 171Q500 90 434 36T262 -19T54 29L82 143Q210 72 318 72L343 73Q379 110 379 161T339 248T225 284L159 281L156 355H172Q260 358 303 397T346 488Q346 536 312 567T219
598L173 593L145 468L73 469Q62 526 62 572L64 614Q145 670 262 670Q352 670 410 623T468 505Q468 456 438 415T348 350Z" />
<glyph unicode="4" glyph-name="four" horiz-adv-x="582" d="M437 169V61L516 50L511 0H214L208 34Q255 56 322 74V169H48L21 238L342 670L417 658L416 655L437 658V253L550 256L552 196L523 169H437ZM322 250V456L332 542L137 245L322 250Z" />
<glyph unicode="5" glyph-name="five" horiz-adv-x="556" d="M272 395Q373 395 440 339T507 191Q507 99 442 39T276 -21Q220 -21 158 -2T44 50L88 157Q206 70 327 70L352 71Q397 114 397 167Q397 232 351 265T234 298Q181 298 128 278L77 325L111 650H457V649L474
650L475 618Q475 540 462 475L389 474L374 566L199 574L181 380Q212 395 272 395Z" />
<glyph unicode="6" glyph-name="six" horiz-adv-x="547" d="M192 331Q265 395 346 395Q418 395 466 339T515 199Q515 106 452 43T293 -20Q183 -20 111 59T38 262Q38 356 82 447T220 598T457 662L458 540L297 553Q232 522 196 442T159 271Q159 172 203 110T329
53Q397 92 397 180Q397 234 371 273T302 312Q262 312 215 279L192 331Z" />
<glyph unicode="7" glyph-name="seven" horiz-adv-x="476" d="M472 568Q317 314 203 -15L87 21Q207 326 365 558L358 567L125 558L112 466L36 467Q24 524 24 610L25 650H433L472 568Z" />
<glyph unicode="8" glyph-name="eight" horiz-adv-x="527" d="M349 350Q415 312 451 270T488 166Q488 84 425 32T260 -21Q163 -21 101 28T39 154Q39 265 172 329Q56 396 56 496Q56 571 115 619T267 668Q354 668 410 625T466 513Q466 415 349 350ZM198 590Q166
552 166 513Q166 471 197 443T290 383Q364 435 364 502Q364 545 335 574T260 604Q232 604 198 590ZM346 60Q374 108 374 143Q374 186 342 221T239 294Q201 271 181 235T160 160Q160 112 190 80T274 47Q307 47 346 60Z" />
<glyph unicode="9" glyph-name="nine" horiz-adv-x="525" d="M337 257Q285 239 239 239Q148 239 89 301T29 455Q29 549 93 609T254 670Q364 670 430 589T496 377Q496 208 384 98T107 -9L87 120L257 99Q320 138 349 211T378 372Q378 468 346 533T248 598L214 593Q184
576 168 540T151 461Q151 399 187 358T282 317Q304 317 326 323L337 257Z" />
<glyph unicode=":" glyph-name="colon" horiz-adv-x="339" d="M241 369Q224 313 172 288Q112 301 86 357Q96 420 159 451Q229 423 241 369ZM241 62Q224 5 172 -20Q112 -7 86 49Q96 111 159 144Q229 116 241 62Z" />
<glyph unicode=";" glyph-name="semicolon" horiz-adv-x="267" d="M212 369Q195 313 143 288Q83 301 57 357Q67 420 130 451Q200 423 212 369ZM44 -102Q108 -49 112 7L60 49Q70 110 130 140Q210 113 210 36Q210 -13 174 -63T78 -145L44 -102Z" />
<glyph unicode="&lt;" glyph-name="less" horiz-adv-x="574" d="M499 435L180 242L181 236L498 63L460 -6L81 202L74 272L460 500L499 435Z" />
<glyph unicode="=" glyph-name="equal" horiz-adv-x="588" d="M530 304H58V377H530V304ZM530 122H58V195H530V122Z" />
<glyph unicode="&gt;" glyph-name="greater" horiz-adv-x="574" d="M114 500L500 272L494 202L115 -6L76 63L393 236L394 242L75 435L114 500Z" />
<glyph unicode="?" glyph-name="question" horiz-adv-x="602" d="M288 686Q378 686 437 633T496 502Q496 461 478 428T411 357T343 295T322 238H220Q220 282 238 317T307 396T371 461T384 515Q384 578 332 609Q274 611 211 580L186 462H114L101 556L97 617Q185
686 288 686ZM283 144Q353 116 365 62Q348 5 296 -20Q236 -7 210 49Q220 111 283 144Z" />
<glyph unicode="@" glyph-name="at" horiz-adv-x="1052" d="M541 689Q681 689 779 634T925 491T974 305Q974 179 900 90T701 -16Q669 -16 642 4T600 55L490 -14L463 -16Q402 -16 363 20T323 107Q323 179 397 218L590 223V317Q590 399 542 422Q492 420 448 407L434
301L366 298Q341 364 341 428Q391 452 466 473T577 494Q610 494 645 472T695 423Q706 404 707 348V102Q707 68 729 68Q746 68 767 84Q809 114 832 174T856 302Q856 437 771 521T546 606Q396 606 301 513T206 277Q206 137 298 15L226 -31Q84 117 84 292Q84 398 139
489T298 634T541 689ZM466 66Q511 65 590 96V167L552 169Q443 169 443 111Q443 82 466 66Z" />
<glyph unicode="A" glyph-name="A" horiz-adv-x="707" d="M711 49L710 0H419L413 32Q446 50 505 70L458 191H204L154 62L252 49L251 0H-14L-20 32Q16 51 63 67L291 622L281 647L386 678L639 58L711 49ZM431 260L331 519L230 260H431Z" />
<glyph unicode="B" glyph-name="B" horiz-adv-x="644" d="M442 348Q522 336 566 290T610 181Q610 101 540 52T350 0H34L28 32L113 68V597L42 604L43 654Q217 662 330 662T510 616T577 494Q577 442 543 400T442 348ZM235 579V372H284Q367 372 407 404T448 483Q448
521 423 553T359 594L235 579ZM325 69L345 68Q408 68 442 101T476 181Q476 235 434 273T326 312H235V77L325 69Z" />
<glyph unicode="C" glyph-name="C" horiz-adv-x="568" d="M552 73L351 -16Q196 -19 105 73T13 319Q13 474 103 574T336 674Q450 674 535 612L534 609L535 581Q535 506 515 444H439L423 559Q355 594 274 594L250 593Q194 557 168 489T142 343Q142 220 204 147T371
79L530 133L552 73Z" />
<glyph unicode="D" glyph-name="D" horiz-adv-x="681" d="M352 662Q487 662 575 566T664 332Q664 185 574 94T332 0H34L28 32L113 68V597L42 604L43 654Q209 662 352 662ZM320 75Q415 75 473 146T531 329Q531 415 495 488T400 594L235 579V87Q276 75 320 75Z" />
<glyph unicode="E" glyph-name="E" horiz-adv-x="590" d="M540 189Q542 89 528 0H34L28 32L113 68V597L41 604L42 654H531L532 626Q532 555 518 477H449L434 573L235 586V359L458 377V283L235 292V74L442 86L472 194L540 189Z" />
<glyph unicode="F" glyph-name="F" horiz-adv-x="576" d="M233 586V340L460 357V261L233 270V65L352 49L351 0H34L28 32Q64 51 111 67V597L39 604L40 654H529L530 626Q530 553 516 475H447L432 572L233 586Z" />
<glyph unicode="G" glyph-name="G" horiz-adv-x="683" d="M580 71L581 70L377 -20L349 -21Q237 -21 162 27T50 151T13 314Q13 471 111 572T368 674Q490 674 574 613L573 610L574 586Q574 523 555 456H480L463 557Q383 595 295 595L257 593Q199 557 170 486T141
328Q141 214 200 141T356 66Q399 65 464 80V226Q398 248 359 268L365 302H656L657 254L580 241V71Z" />
<glyph unicode="H" glyph-name="H" horiz-adv-x="777" d="M749 49L748 0H453L447 32L532 68V286H235V61L330 49L329 0H34L28 32L113 68V595L36 605L37 654H314L320 622Q295 608 235 586V364H532V595L455 605L456 654H733L739 622Q714 608 654 586V61L749 49Z" />
<glyph unicode="I" glyph-name="I" horiz-adv-x="358" d="M330 49L329 0H34L28 32L113 68V595L36 605L37 654H314L320 622Q295 608 235 586V61L330 49Z" />
<glyph unicode="J" glyph-name="J" horiz-adv-x="367" d="M339 622Q316 609 255 586V105Q255 0 194 -66T25 -184L-11 -131Q71 -79 101 -20T133 126V593L39 605L40 654H333L339 622Z" />
<glyph unicode="K" glyph-name="K" horiz-adv-x="685" d="M674 50L673 0H504L289 297L235 240V61L326 49L325 0H34L28 32L113 68V595L35 605L36 654H314L320 622Q295 608 235 586V345L469 596L401 605L402 654H635L641 622Q617 608 565 591L370 384L615 57L674 50Z" />
<glyph unicode="L" glyph-name="L" horiz-adv-x="572" d="M561 215Q563 84 548 0H34L28 32L113 68V595L36 605L37 654H314L320 622Q295 608 235 586V75L456 89L489 220L561 215Z" />
<glyph unicode="M" glyph-name="M" horiz-adv-x="928" d="M899 47L898 0H605L599 32Q635 51 685 68L681 381L695 550L500 18V16L399 -7L200 545L217 381L210 61L295 47L294 0H34L28 32Q59 48 116 69L133 590L52 603L53 650H286L471 133L658 650H866L872 618Q842
601 794 585L803 62L899 47Z" />
<glyph unicode="N" glyph-name="N" horiz-adv-x="759" d="M646 0L525 -12H524L525 -11L189 514L205 384V60L293 49L292 0H34L28 32L113 68V596L45 605L46 654H247L572 139L556 267V592L458 605L459 654H725L731 622Q701 605 648 587L646 0Z" />
<glyph unicode="O" glyph-name="O" horiz-adv-x="664" d="M328 674Q467 674 557 576T647 319Q647 166 560 73T335 -20Q196 -20 107 74T17 323Q17 478 105 576T328 674ZM230 580Q193 551 171 485T148 339Q148 212 203 136T353 60Q386 60 420 69Q462 99 488 165T514
314Q514 440 460 518T315 596Q274 596 230 580Z" />
<glyph unicode="P" glyph-name="P" horiz-adv-x="606" d="M233 241V65L352 49L351 0H34L28 32Q64 51 111 67V597L39 604L40 654L341 662Q450 662 519 602T589 450Q589 362 523 302T354 241H233ZM233 579V319Q280 311 324 311Q392 311 426 352T460 453Q460 498
442 537T390 594L233 579Z" />
<glyph unicode="Q" glyph-name="Q" horiz-adv-x="702" d="M694 -172L386 -16L335 -20Q196 -20 107 74T17 323Q17 478 105 576T328 674Q467 674 557 576T647 319Q647 208 602 131T482 15L747 -56L694 -172ZM148 339Q148 212 203 136T353 60Q386 60 420 69Q462 99
488 165T514 314Q514 440 460 518T315 596Q274 596 230 580Q193 551 171 485T148 339Z" />
<glyph unicode="R" glyph-name="R" horiz-adv-x="665" d="M653 49L652 0H476L336 257L235 256V62L334 49L333 0H34L28 32L113 68V597L41 604L42 654L341 662Q452 662 521 606T591 464Q591 404 555 352T453 275L587 57L653 49ZM235 332Q280 324 311 324Q393 324
427 364T461 463Q461 557 392 594L235 579V332Z" />
<glyph unicode="S" glyph-name="S" horiz-adv-x="555" d="M513 177Q513 90 447 35T279 -20Q222 -20 157 -2T54 47L55 50L54 85Q54 162 67 224H130L162 92Q225 54 312 54L334 55Q390 83 390 148Q390 204 322 243L164 324Q57 387 57 485Q57 569 126 621T302 674Q384
674 483 641Q488 557 470 464H403L384 568Q328 601 252 601L222 600Q175 571 175 514Q175 461 247 423L397 349Q513 284 513 177Z" />
<glyph unicode="T" glyph-name="T" horiz-adv-x="621" d="M611 660L612 634Q612 556 598 470H530L517 583L371 591V63L480 49L479 0H150L144 32L217 60L249 71V591L103 583L90 470H23Q9 552 9 628L10 660L312 656Q471 656 611 660Z" />
<glyph unicode="U" glyph-name="U" horiz-adv-x="718" d="M709 622Q684 608 624 586V280Q619 -19 374 -19Q241 -19 164 62T86 285V595L9 605L10 654H287L293 622Q268 608 208 586V269Q208 170 254 118T383 65Q432 65 474 86Q533 134 533 279V594L446 605L447 654H703L709
622Z" />
<glyph unicode="V" glyph-name="V" horiz-adv-x="695" d="M407 0L408 -1Q351 -12 286 -12L75 595L-1 605L0 654H288L294 622Q264 606 207 585L334 205L347 80H353L528 593L438 605L439 654H689L695 622Q672 609 618 589L407 0Z" />
<glyph unicode="W" glyph-name="W" horiz-adv-x="952" d="M952 622L876 589L708 -2Q645 -13 582 -12L474 357L453 241L378 -2L377 -1V-2Q314 -13 253 -12L73 596L1 605L2 654H282L288 622L203 586L307 205L317 80H321L438 479L398 616L518 645L632 209L644 80H647L786
592L687 605L688 654H946L952 622Z" />
<glyph unicode="X" glyph-name="X" horiz-adv-x="684" d="M682 49L681 0H405L399 32L465 61L325 271L187 60L272 49L271 0H12L6 32Q41 50 88 67L278 341L108 596L40 605L41 654H295L301 622L246 597L370 413L480 595L406 605L407 654H642L648 622Q623 608 570
589L414 349L611 57L682 49Z" />
<glyph unicode="Y" glyph-name="Y" horiz-adv-x="622" d="M368 60L451 49L450 0H175L169 32Q197 47 248 66V250L62 597L-1 605L0 654H247L253 622L192 595L293 404L320 321H325L462 595L385 605L386 654H618L624 622Q591 604 549 590L368 255V60Z" />
<glyph unicode="Z" glyph-name="Z" horiz-adv-x="603" d="M567 198Q562 113 541 0H64L34 56L413 586L163 573L141 455H72Q61 517 61 602L63 654H532L531 652L533 654L560 598L189 81L454 86L493 208L567 198Z" />
<glyph unicode="[" glyph-name="bracketleft" horiz-adv-x="370" d="M337 654L207 628V-38L337 -64L331 -122H95V712H331L337 654Z" />
<glyph unicode="\" glyph-name="backslash" horiz-adv-x="395" d="M-7 681L80 715L388 -94L300 -126L-7 681Z" />
<glyph unicode="]" glyph-name="bracketright" horiz-adv-x="373" d="M275 712V-122H39L33 -64L163 -38V628L33 654L39 712H275Z" />
<glyph unicode="^" glyph-name="asciicircum" horiz-adv-x="525" d="M298 649L501 369L443 328L267 576H260L93 324L32 363L225 649H298Z" />
<glyph unicode="_" glyph-name="underscore" horiz-adv-x="532" d="M522 -208H10V-135H522V-208Z" />
<glyph unicode="`" glyph-name="grave" horiz-adv-x="290" d="M200 532Q103 624 33 681L118 753L264 583L200 532Z" />
<glyph unicode="a" glyph-name="a" horiz-adv-x="526" d="M513 40L402 -16Q383 -14 358 6T320 55L210 -14L183 -16Q122 -16 83 20T43 107Q43 179 117 218L310 223V319Q310 399 262 424Q209 422 168 408L155 302L87 299Q60 355 62 429Q111 454 186 475T297 496Q331
496 364 475T416 425Q427 405 428 349V98Q428 77 453 77L501 84L513 40ZM186 66Q234 66 310 96V168L275 169Q163 169 163 111Q163 82 186 66Z" />
<glyph unicode="b" glyph-name="b" horiz-adv-x="538" d="M293 484L331 488Q411 488 463 421T515 254Q515 135 440 58T246 -19Q162 -19 62 23L63 24V653L-12 655L-21 703Q48 731 136 736L180 695V408L293 484ZM316 59Q352 83 372 130T393 231Q393 297 361 345T278
393Q239 393 180 358V82Q225 56 280 56L316 59Z" />
<glyph unicode="c" glyph-name="c" horiz-adv-x="431" d="M274 -14L255 -15Q149 -15 83 55T17 236Q17 347 84 419T253 492Q364 492 421 405L340 332Q270 406 192 420Q135 354 135 258Q135 175 175 123T288 71Q337 71 394 97L413 50L274 -14Z" />
<glyph unicode="d" glyph-name="d" horiz-adv-x="558" d="M550 40L439 -16Q418 -14 393 9T355 62L244 -16Q146 -17 82 54T17 233Q17 344 90 418T274 492Q313 492 348 481V653L273 655L263 703Q332 731 420 736L465 695V98Q465 77 491 77L538 84L550 40ZM140 247Q140
176 173 129T263 81Q301 81 348 106V384Q298 418 238 418L206 415Q140 357 140 247Z" />
<glyph unicode="e" glyph-name="e" horiz-adv-x="467" d="M134 252Q134 167 178 120T292 73Q346 73 420 107L438 60L282 -14Q166 -20 92 49T17 229Q17 337 86 414T255 492Q339 492 393 440T447 304L389 248L134 252ZM212 424Q159 394 141 312L336 322Q328 368
294 396T212 424Z" />
<glyph unicode="f" glyph-name="f" horiz-adv-x="346" d="M319 598Q258 657 186 657L168 656L203 470H311L313 435L265 381H200V75Q264 63 291 48L287 0H19L15 34L83 61V382L17 381L12 432L83 461V559Q85 642 135 696T261 751Q333 751 386 702L319 598Z" />
<glyph unicode="g" glyph-name="g" horiz-adv-x="557" d="M542 432Q487 435 446 416Q475 376 475 325Q475 250 413 203T257 155L223 157Q189 132 163 104Q239 103 339 84T509 40Q516 15 516 -11Q516 -103 429 -169T224 -236Q140 -236 82 -199T27 -90L142 14L71
18L52 74Q104 133 161 171Q106 191 74 231T41 325Q41 399 103 449T259 499Q338 499 397 462Q432 538 520 548L542 432ZM316 223Q359 258 359 317Q359 365 326 400T248 436Q218 436 190 422Q159 388 159 331Q159 279 186 246T262 213Q284 213 316 223ZM237 -140Q297
-140 354 -116T437 -49Q364 -12 201 8Q126 -46 126 -84Q126 -110 157 -125T237 -140Z" />
<glyph unicode="h" glyph-name="h" d="M517 72Q563 62 589 48L585 0H348L344 34L400 57V292Q400 395 337 395Q295 395 214 344V71Q255 60 276 48L272 0H26L22 34Q53 49 97 63V653L22 655L12 703Q81 731 169 736L214 696V392Q331 477 397 488Q427 484 457 465T504
419Q516 397 517 328V72Z" />
<glyph unicode="i" glyph-name="i" horiz-adv-x="304" d="M161 566Q106 589 70 636Q100 696 144 727Q195 704 231 653Q208 597 161 566ZM214 72Q260 64 285 48L281 0H25L21 34Q50 49 97 63V407L22 408L12 456Q81 484 169 489L214 449V72Z" />
<glyph unicode="j" glyph-name="j" horiz-adv-x="291" d="M164 565Q109 588 73 635Q103 695 147 726Q198 703 234 652Q212 599 164 565ZM15 456Q84 484 172 489L217 449V-56Q217 -110 161 -153T11 -213L-4 -169Q54 -150 77 -118T100 -26V407L25 408L15 456Z" />
<glyph unicode="k" glyph-name="k" horiz-adv-x="587" d="M560 25L432 -12Q404 -4 379 32L275 195L214 187V69Q247 61 268 48L264 0H26L22 34Q53 49 97 63V653L22 655L12 703Q81 731 169 736L214 696V239L270 272L386 412L310 408L300 456Q376 484 483 489V488L518
433L364 251L472 95Q491 70 519 70L548 73L560 25Z" />
<glyph unicode="l" glyph-name="l" horiz-adv-x="316" d="M214 72Q260 64 285 48L281 0H25L21 34Q50 49 97 63V653L22 655L12 703Q81 731 169 736L214 696V72Z" />
<glyph unicode="m" glyph-name="m" horiz-adv-x="896" d="M810 72Q856 62 881 48L876 0H641L637 34L693 57V292Q693 395 630 395Q586 395 510 346L511 71Q551 63 578 48L573 0H342L338 34L394 57V292Q394 395 331 395Q288 395 214 348V71Q255 60 276 48L272 0H29L25
34Q49 47 97 62V407L22 408L12 456Q81 484 169 489L214 447V396Q333 480 391 488Q421 484 451 465T498 419Q504 408 507 392Q624 477 690 488Q720 484 750 465T797 419Q809 397 810 328V72Z" />
<glyph unicode="n" glyph-name="n" horiz-adv-x="607" d="M520 72Q566 62 591 48L586 0H351L347 34L403 57V292Q403 395 340 395Q297 395 214 342V71Q255 60 276 48L272 0H29L25 34Q49 47 97 62V407L22 408L12 456Q81 484 169 489L214 447V390Q336 477 400 488Q430
484 460 465T507 419Q519 397 520 328V72Z" />
<glyph unicode="o" glyph-name="o" horiz-adv-x="503" d="M17 238Q17 350 83 421T251 492T416 421T481 233Q481 118 418 49T254 -20Q151 -20 84 52T17 238ZM305 60Q360 97 360 222Q360 308 332 363T244 419Q206 419 180 400Q139 349 139 245Q139 163 170 108T263
53Q283 53 305 60Z" />
<glyph unicode="p" glyph-name="p" horiz-adv-x="567" d="M288 -15Q251 -15 212 -6V-128Q279 -145 298 -155L294 -203H33L29 -170L95 -145V407L22 408L12 456Q82 485 169 489V488L212 449V409L323 484L361 488Q441 488 493 421T545 254Q545 138 473 62T288 -15ZM307
393Q271 393 212 359V80Q262 57 316 57L345 59Q380 83 400 131T421 231Q421 297 390 345T307 393Z" />
<glyph unicode="q" glyph-name="q" horiz-adv-x="548" d="M462 -134Q498 -144 518 -155L514 -203H253L249 -170Q287 -149 345 -134V56L245 -14Q148 -15 83 57T17 234Q17 345 92 419T279 494Q347 494 414 458L499 471L516 423L462 384V-134ZM264 83Q300 83 345
106V388Q296 419 237 419L207 417Q141 357 141 248Q141 177 174 130T264 83Z" />
<glyph unicode="r" glyph-name="r" horiz-adv-x="449" d="M440 461Q442 375 413 285H348L332 397Q264 352 214 289V75Q289 65 318 48L314 0H27L23 34Q55 50 97 63V407L22 408L12 456Q81 484 169 489L214 449V364L316 475Q340 485 367 485Q410 485 440 461Z" />
<glyph unicode="s" glyph-name="s" horiz-adv-x="432" d="M145 374Q145 344 170 326T247 284L314 250Q393 205 393 128Q393 63 342 22T210 -20Q118 -20 22 33L66 135Q156 70 258 50Q282 71 282 101Q282 129 262 148T166 202T64 268T37 344Q37 412 95 452T237 492Q314
492 374 461H375L376 437Q376 381 358 328H293L278 412Q225 429 179 426Q145 408 145 374Z" />
<glyph unicode="t" glyph-name="t" horiz-adv-x="363" d="M237 82Q264 82 325 101L338 53L197 -16Q157 -18 121 12T85 78V383L20 382L14 432Q55 455 90 467L134 595H192L200 470H340L343 434L295 381H202V133Q202 105 209 94T237 82Z" />
<glyph unicode="u" glyph-name="u" horiz-adv-x="590" d="M582 40L471 -16Q450 -14 424 10T387 64Q287 -4 204 -16Q173 -11 142 11T97 58T84 162V407L10 408L0 456Q70 485 157 489V488L201 449V157Q204 76 266 76Q313 76 380 114V407L311 409L301 457Q371 487
452 489L497 449V98Q497 77 523 77L570 84L582 40Z" />
<glyph unicode="v" glyph-name="v" horiz-adv-x="519" d="M528 431L469 406Q377 148 318 3Q288 -7 241 -7L186 -3L42 405L-16 421L-15 472H214L219 431L169 410L237 193L252 96H273Q309 215 354 410L302 421L303 472H523L528 431Z" />
<glyph unicode="w" glyph-name="w" horiz-adv-x="753" d="M762 431L705 407L579 6Q538 -7 490 -7Q462 -7 445 -3L378 190L375 176L304 6Q270 -6 218 -6L172 -3L41 405L-16 421L-15 472H212L217 431L164 408L229 191L253 85H261L340 300L288 448L402 466L494 191L513
85H520L593 408L533 421L534 472H757L762 431Z" />
<glyph unicode="x" glyph-name="x" horiz-adv-x="555" d="M469 73Q514 65 543 48L539 0H311L307 34L355 54L256 184L184 69Q217 61 238 48L234 0H6L2 34Q29 48 62 58L212 242L89 403L25 421L26 472H244L249 431L215 416L296 307L361 413L316 421L317 472H520L525
431L466 407L338 250L469 73Z" />
<glyph unicode="y" glyph-name="y" horiz-adv-x="522" d="M531 431L472 407Q408 191 360 65Q322 -27 264 -96T113 -219L50 -109Q176 -64 244 0Q207 12 180 32L45 404L-16 421L-15 472H222L227 431L172 408L239 198L253 97H271Q318 231 354 409L298 421L299 472H526L531
431Z" />
<glyph unicode="z" glyph-name="z" horiz-adv-x="496" d="M418 160L471 152Q468 64 444 -12L117 20L75 -16L25 25L309 412L139 399L117 299H54Q43 352 43 415L46 472H401L432 493L473 456L197 83L391 87L418 160Z" />
<glyph unicode="{" glyph-name="braceleft" horiz-adv-x="456" d="M357 -145Q267 -138 208 -91T148 19V160Q147 223 129 243T67 268L73 327Q114 331 131 353T148 439V551Q148 626 205 672T364 729L370 644H269L273 449Q275 369 221 304V295Q275 229 273 149L269
-48L367 -60L357 -145Z" />
<glyph unicode="|" glyph-name="bar" horiz-adv-x="303" d="M103 735H197V-225H103V735Z" />
<glyph unicode="}" glyph-name="braceright" horiz-adv-x="461" d="M90 -60L188 -48L184 149Q182 227 236 295V304Q182 371 184 449L188 644H87L93 729Q192 720 249 674T309 559V429Q310 373 327 352T384 327L390 268Q346 264 328 244T309 160V19Q309 -43 250
-90T100 -145L90 -60Z" />
<glyph unicode="~" glyph-name="asciitilde" horiz-adv-x="601" d="M83 227Q126 291 153 319T206 348Q229 348 270 330T405 262L490 332L523 303Q477 231 453 203T407 175Q384 175 304 216T206 257Q181 257 125 195L83 227Z" />
<glyph unicode="&#xa0;" glyph-name="uni00A0" horiz-adv-x="265" />
<glyph unicode="&#xa1;" glyph-name="exclamdown" horiz-adv-x="314" d="M82 -179Q111 -199 160 -199Q213 -199 233 -177L195 253H118L82 -179ZM153 333Q223 361 235 415Q218 472 166 497Q106 484 80 428Q90 366 153 333Z" />
<glyph unicode="&#xa2;" glyph-name="cent" horiz-adv-x="435" d="M413 72L286 18V-116H212V16Q123 29 70 91T17 244Q17 336 71 399T212 477V603H286V478Q373 467 421 400L340 333Q269 401 192 414Q135 353 135 264Q135 187 175 140T288 92Q339 92 394 116L413 72Z" />
<glyph unicode="&#xa3;" glyph-name="sterling" horiz-adv-x="538" d="M495 189L498 106Q498 39 492 0H18L12 32L85 64Q131 145 131 230L130 260H36L30 291L73 328H118L89 423Q79 459 79 484Q79 560 141 615T301 670Q378 670 471 633L470 631L472 593Q472 517
459 456L394 458L361 575Q312 599 241 597Q199 568 199 495Q199 466 219 388L232 340H387L393 309L350 272H244L245 247Q245 159 185 76L397 87L431 194L495 189Z" />
<glyph unicode="&#xa4;" glyph-name="currency" horiz-adv-x="510" d="M431 358Q431 286 393 238L452 174L406 129L345 195Q305 170 254 170Q207 170 165 194L110 127L62 170L118 236Q78 287 78 356Q78 423 116 470L56 538L105 581L164 514Q208 541 260 541Q311
541 351 516L404 580L454 539L397 472Q431 425 431 358ZM309 244Q324 251 336 281T349 347Q349 397 322 433T234 469L199 465Q158 433 158 360Q158 310 186 275T271 240L309 244Z" />
<glyph unicode="&#xa5;" glyph-name="yen" horiz-adv-x="619" d="M347 237V177H479L485 146L442 117H347V60L430 49L429 0H154L148 32Q176 47 227 66V117H108L102 148L145 177H227V237H108L102 268L145 297H202L41 597L-22 605L-21 654H226L232 622L171 595L272
404L299 321H304L441 595L364 605L365 654H597L603 622Q570 604 528 590L370 297H479L485 266L442 237H347Z" />
<glyph unicode="&#xa6;" glyph-name="brokenbar" horiz-adv-x="303" d="M103 616H197V358H103V616ZM103 182H197V-76H103V182Z" />
<glyph unicode="&#xa7;" glyph-name="section" horiz-adv-x="526" d="M411 124Q471 80 471 14Q471 -55 414 -101T272 -148Q224 -148 168 -133T69 -88L116 10Q164 -22 220 -42T324 -62L348 -60Q376 -33 376 -1Q376 32 348 50T261 90Q164 125 112 164T59 266Q59
338 131 391Q68 438 68 504Q68 577 133 623T294 670Q374 670 460 638L462 602Q462 535 449 474L384 475L361 580Q318 599 268 599Q243 599 214 593Q173 563 173 516Q173 473 232 446L370 387Q485 332 485 243Q485 175 411 124ZM152 287Q152 240 226 209L296 182L356
157Q389 184 389 218Q389 271 319 303L236 336L216 344L189 356Q152 324 152 287Z" />
<glyph unicode="&#xa8;" glyph-name="dieresis" horiz-adv-x="425" d="M171 624Q156 572 109 550Q55 566 33 612Q39 667 97 698Q159 674 171 624ZM388 624Q373 572 325 550Q271 566 249 612Q257 667 314 698Q376 674 388 624Z" />
<glyph unicode="&#xa9;" glyph-name="copyright" horiz-adv-x="815" d="M407 -21Q259 -21 156 80T52 331T155 584T405 688Q554 688 657 584T761 332Q761 184 659 82T407 -21ZM405 46Q527 46 610 130T694 334T610 537T407 621Q287 621 203 537T119 331Q119 211
202 129T405 46ZM430 134Q337 133 279 188T221 329T277 472T419 529Q521 529 574 445L498 389Q445 456 370 467Q315 418 315 344Q315 289 350 252T447 214Q489 214 546 238L563 195L430 134Z" />
<glyph unicode="&#xaa;" glyph-name="ordfeminine" horiz-adv-x="416" d="M228 451V508Q228 560 196 576Q152 574 133 569L125 496L73 492Q58 534 60 580Q86 599 138 613T223 627Q249 626 272 609T308 570Q315 554 315 518V372Q315 357 331 357L364 361L371 332L293
292Q278 293 261 306T234 340L161 293Q107 289 77 312T47 373Q47 416 91 447L228 451ZM141 347Q174 348 228 367V412H226L202 413Q128 413 128 374Q128 358 141 347ZM386 255V200H30V255H386Z" />
<glyph unicode="&#xab;" glyph-name="guillemotleft" horiz-adv-x="544" d="M203 467L268 429L178 253L273 86L207 42L58 227V280L203 467ZM416 467L481 429L391 253L486 86L420 42L271 227V280L416 467Z" />
<glyph unicode="&#xac;" glyph-name="logicalnot" horiz-adv-x="592" d="M534 0H447V192H58V269H534V0Z" />
<glyph unicode="&#xad;" glyph-name="uni00AD" horiz-adv-x="390" d="M31 303L44 331H315L353 267L340 240H70L31 303Z" />
<glyph unicode="&#xae;" glyph-name="registered" horiz-adv-x="571" d="M287 771Q404 771 480 695T557 504Q557 388 480 313T284 237T90 312T15 504T92 695T287 771ZM282 284Q382 284 445 345T509 503Q509 601 447 663T286 726Q187 726 125 663T63 500Q63 403
123 344T282 284ZM402 405L434 402L433 375H347L287 476H243V406L288 402L287 375H144L140 395L180 411V616L144 619V648H288Q345 648 377 624T409 563Q409 508 349 486L402 405ZM243 514L265 513Q342 513 342 562Q342 596 303 613L243 607V514Z" />
<glyph unicode="&#xaf;" glyph-name="overscore" horiz-adv-x="422" d="M403 643L408 602L361 564H58L52 618Q103 643 165 643H403Z" />
<glyph unicode="&#xb0;" glyph-name="degree" horiz-adv-x="358" d="M30 509Q30 566 68 605T163 644Q220 644 259 605T298 509Q298 449 262 413T167 376Q110 376 70 413T30 509ZM203 438Q229 461 229 500Q229 533 209 558T156 584Q140 584 118 576Q97 551 97 515Q97
482 117 458T172 433Q189 433 203 438Z" />
<glyph unicode="&#xb1;" glyph-name="plusminus" horiz-adv-x="539" d="M481 326H313V145H226V326H58V400H226V579H313V400H481V326ZM473 0H64L63 74H473V0Z" />
<glyph unicode="&#xb2;" glyph-name="twosuperior" horiz-adv-x="293" d="M269 501L256 423H38L22 464L105 544Q177 613 177 652Q177 677 161 692T122 708L103 706L81 622H35Q24 663 27 715Q82 751 139 751Q192 751 223 722T255 653Q255 581 117 483L120 476L269 501Z" />
<glyph unicode="&#xb3;" glyph-name="threesuperior" horiz-adv-x="302" d="M200 590Q232 585 252 562T273 505Q273 461 237 437T148 413Q88 413 30 440L51 512Q124 465 178 463Q198 476 198 500Q198 523 179 539T124 555H91V599H112Q149 601 166 619T183 659Q183
681 166 695T118 709L89 640H49Q42 672 42 702L43 721Q87 751 148 751Q194 751 225 727T257 666Q257 609 200 591V590Z" />
<glyph unicode="&#xb4;" glyph-name="acute" horiz-adv-x="290" d="M25 583L171 753L256 681Q186 624 89 532L25 583Z" />
<glyph unicode="&#xb5;" glyph-name="uni00B5" horiz-adv-x="562" d="M553 40L442 -16Q422 -14 396 9T359 62Q256 -2 178 -15Q154 -13 128 22H124L181 -200Q148 -228 84 -228L56 -226V470Q113 490 173 490V169Q173 76 247 76Q287 77 351 110V470Q408 490 468 490V98Q468
77 494 77L541 84L553 40Z" />
<glyph unicode="&#xb6;" glyph-name="paragraph" horiz-adv-x="638" d="M604 -117L603 -165H432V596L380 600L355 601V-165H165L159 -128Q202 -109 275 -92V593Q153 564 153 444Q153 384 204 314L166 277Q88 302 44 357T0 480Q0 571 74 629T270 687L303 686L596
646L589 585L512 591V-106L604 -117Z" />
<glyph unicode="&#xb7;" glyph-name="middot" horiz-adv-x="227" d="M111 188Q57 211 30 251Q60 311 96 331Q138 314 174 268Q156 219 111 188Z" />
<glyph unicode="&#xb8;" glyph-name="cedilla" horiz-adv-x="262" d="M111 -58Q167 -58 199 -83T232 -143Q232 -189 184 -222T46 -267L31 -233Q81 -217 108 -193T136 -145Q136 -102 60 -108L33 -67L96 6H151L111 -58Z" />
<glyph unicode="&#xb9;" glyph-name="onesuperior" horiz-adv-x="245" d="M218 449L217 423H23L20 439Q45 455 83 465V671L20 646L4 677L124 748V749H125V748L160 726H161V461L218 449Z" />
<glyph unicode="&#xba;" glyph-name="ordmasculine" horiz-adv-x="421" d="M35 457Q35 532 82 581T198 630Q264 630 309 580T355 454T311 332T196 286Q127 286 81 334T35 457ZM234 343Q244 348 254 373T265 440Q265 494 246 534T183 574Q168 574 156 568Q142 559
133 528T124 460Q124 340 207 340L234 343ZM373 200H19V255H373V200Z" />
<glyph unicode="&#xbb;" glyph-name="guillemotright" horiz-adv-x="544" d="M124 42L58 86L154 253L64 429L129 467L273 280V227L124 42ZM337 42L271 86L367 253L277 429L342 467L486 280V227L337 42Z" />
<glyph unicode="&#xbc;" glyph-name="onequarter" horiz-adv-x="689" d="M218 368L217 342H23L20 358Q45 374 83 384V590L20 565L4 596L124 667V668H125V667L160 645H161V380L218 368ZM601 673L652 621L75 18L22 68L601 673ZM668 123V93L653 73H612V34L652 27L651
0H482L479 16Q500 28 537 39V73H404L390 109L549 327V328H550L552 327L612 316V122L668 123ZM537 121V192L548 243L465 120L537 121Z" />
<glyph unicode="&#xbd;" glyph-name="onehalf" horiz-adv-x="676" d="M218 368L217 342H23L20 358Q45 374 83 384V590L20 565L4 596L124 667V668H125V667L160 645H161V380L218 368ZM601 673L652 621L75 18L22 68L601 673ZM657 78L644 0H426L410 41L493 121Q565
190 565 229Q565 254 549 269T510 285L491 283L469 199H423Q412 240 415 292Q470 328 527 328Q580 328 611 299T643 230Q643 158 505 60L508 53L657 78Z" />
<glyph unicode="&#xbe;" glyph-name="threequarters" horiz-adv-x="732" d="M203 509Q235 504 255 481T276 424Q276 380 240 356T151 332Q91 332 33 359L54 431Q127 384 181 382Q201 395 201 419Q201 442 182 458T127 474H94V518H115Q152 520 169 538T186 578Q186
600 169 614T121 628L92 559H52Q45 591 45 621L46 640Q90 670 151 670Q197 670 228 646T260 585Q260 528 203 510V509ZM645 673L696 621L119 18L66 68L645 673ZM712 123V93L697 73H656V34L696 27L695 0H526L523 16Q544 28 581 39V73H448L434 109L593 327V328H594L596
327L656 316V122L712 123ZM581 121V192L592 243L509 120L581 121Z" />
<glyph unicode="&#xbf;" glyph-name="questiondown" horiz-adv-x="602" d="M304 -216Q214 -216 155 -163T96 -32Q96 9 114 42T181 113T249 175T270 232H372Q372 188 354 153T285 74T221 9T208 -45Q208 -108 260 -139Q318 -141 381 -110L406 8H478L491 -86L495
-147Q407 -216 304 -216ZM309 326Q239 354 227 408Q244 465 296 490Q356 477 382 421Q372 359 309 326Z" />
<glyph unicode="&#xc0;" glyph-name="Agrave" horiz-adv-x="707" d="M711 49L710 0H419L413 32Q446 50 505 70L458 191H204L154 62L252 49L251 0H-14L-20 32Q16 51 63 67L291 622L281 647L386 678L639 58L711 49ZM431 260L331 519L230 260H431ZM447 690Q327 741
200 789L254 886L486 755L447 690Z" />
<glyph unicode="&#xc1;" glyph-name="Aacute" horiz-adv-x="707" d="M711 49L710 0H419L413 32Q446 50 505 70L458 191H204L154 62L252 49L251 0H-14L-20 32Q16 51 63 67L291 622L281 647L386 678L639 58L711 49ZM431 260L331 519L230 260H431ZM452 886L506 789L259
690L220 755L452 886Z" />
<glyph unicode="&#xc2;" glyph-name="Acircumflex" horiz-adv-x="707" d="M711 49L710 0H419L413 32Q446 50 505 70L458 191H204L154 62L252 49L251 0H-14L-20 32Q16 51 63 67L291 622L281 647L386 678L639 58L711 49ZM431 260L331 519L230 260H431ZM290 891H390L539
746L491 699L341 807L196 699L146 746L290 891Z" />
<glyph unicode="&#xc3;" glyph-name="Atilde" horiz-adv-x="707" d="M711 49L710 0H419L413 32Q446 50 505 70L458 191H204L154 62L252 49L251 0H-14L-20 32Q16 51 63 67L291 622L281 647L386 678L639 58L711 49ZM431 260L331 519L230 260H431ZM129 754Q172 818
199 846T252 875Q275 875 316 857T451 789L536 859L569 830Q523 758 499 730T453 702Q430 702 350 743T252 784Q227 784 171 722L129 754Z" />
<glyph unicode="&#xc4;" glyph-name="Adieresis" horiz-adv-x="707" d="M711 49L710 0H419L413 32Q446 50 505 70L458 191H204L154 62L252 49L251 0H-14L-20 32Q16 51 63 67L291 622L281 647L386 678L639 58L711 49ZM431 260L331 519L230 260H431ZM302 805Q287
753 240 731Q186 747 164 793Q170 848 228 879Q290 855 302 805ZM519 805Q504 753 456 731Q402 747 380 793Q388 848 445 879Q507 855 519 805Z" />
<glyph unicode="&#xc5;" glyph-name="Aring" horiz-adv-x="707" d="M711 49L710 0H419L413 32Q446 50 505 70L458 191H204L154 62L252 49L251 0H-14L-20 32Q16 51 63 67L291 622L281 647L386 678L639 58L711 49ZM431 260L331 519L230 260H431ZM228 823Q228 871
260 904T341 937T422 904T455 821Q455 772 424 742T345 711Q296 711 262 742T228 823ZM283 786T300 770T343 754T383 769T399 810Q399 836 383 852T342 869Q317 869 300 853T283 811Z" />
<glyph unicode="&#xc6;" glyph-name="AE" horiz-adv-x="927" d="M881 189Q883 89 869 0L865 1V0H375L369 35L434 63L454 71V191H253L186 61L278 49L277 0H12L6 35Q30 49 101 74L381 598L320 604L321 654H872L873 626Q873 555 859 477H790L775 571L574 581V359L798
377V283L574 292V76L783 86L813 194L881 189ZM454 260V580L289 260H454Z" />
<glyph unicode="&#xc7;" glyph-name="Ccedilla" horiz-adv-x="568" d="M316 -58Q372 -58 404 -83T437 -143Q437 -189 389 -222T251 -267L236 -233Q286 -217 313 -193T341 -145Q341 -102 265 -108L238 -67L285 -13Q160 3 87 93T13 319Q13 474 103 574T336 674Q450
674 535 612L534 609L535 581Q535 506 515 444H439L423 559Q355 594 274 594L250 593Q194 557 168 489T142 343Q142 220 204 147T371 79L530 133L552 73L351 -16H342L316 -58Z" />
<glyph unicode="&#xc8;" glyph-name="Egrave" horiz-adv-x="590" d="M540 189Q542 89 528 0H34L28 32L113 68V597L41 604L42 654H531L532 626Q532 555 518 477H449L434 573L235 586V359L458 377V283L235 292V74L442 86L472 194L540 189ZM407 690Q287 741 160 789L214
886L446 755L407 690Z" />
<glyph unicode="&#xc9;" glyph-name="Eacute" horiz-adv-x="590" d="M540 189Q542 89 528 0H34L28 32L113 68V597L41 604L42 654H531L532 626Q532 555 518 477H449L434 573L235 586V359L458 377V283L235 292V74L442 86L472 194L540 189ZM412 886L466 789L219 690L180
755L412 886Z" />
<glyph unicode="&#xca;" glyph-name="Ecircumflex" horiz-adv-x="590" d="M540 189Q542 89 528 0H34L28 32L113 68V597L41 604L42 654H531L532 626Q532 555 518 477H449L434 573L235 586V359L458 377V283L235 292V74L442 86L472 194L540 189ZM250 891H350L499
746L451 699L301 807L156 699L106 746L250 891Z" />
<glyph unicode="&#xcb;" glyph-name="Edieresis" horiz-adv-x="590" d="M540 189Q542 89 528 0H34L28 32L113 68V597L41 604L42 654H531L532 626Q532 555 518 477H449L434 573L235 586V359L458 377V283L235 292V74L442 86L472 194L540 189ZM262 805Q247 753 200
731Q146 747 124 793Q130 848 188 879Q250 855 262 805ZM479 805Q464 753 416 731Q362 747 340 793Q348 848 405 879Q467 855 479 805Z" />
<glyph unicode="&#xcc;" glyph-name="Igrave" horiz-adv-x="358" d="M330 49L329 0H34L28 32L113 68V595L36 605L37 654H314L320 622Q295 608 235 586V61L330 49ZM281 690Q161 741 34 789L88 886L320 755L281 690Z" />
<glyph unicode="&#xcd;" glyph-name="Iacute" horiz-adv-x="358" d="M330 49L329 0H34L28 32L113 68V595L36 605L37 654H314L320 622Q295 608 235 586V61L330 49ZM286 886L340 789L93 690L54 755L286 886Z" />
<glyph unicode="&#xce;" glyph-name="Icircumflex" horiz-adv-x="358" d="M330 49L329 0H34L28 32L113 68V595L36 605L37 654H314L320 622Q295 608 235 586V61L330 49ZM125 891H225L374 746L326 699L176 807L31 699L-19 746L125 891Z" />
<glyph unicode="&#xcf;" glyph-name="Idieresis" horiz-adv-x="358" d="M330 49L329 0H34L28 32L113 68V595L36 605L37 654H314L320 622Q295 608 235 586V61L330 49ZM136 805Q121 753 74 731Q20 747 -2 793Q4 848 62 879Q124 855 136 805ZM353 805Q338 753 290
731Q236 747 214 793Q222 848 279 879Q341 855 353 805Z" />
<glyph unicode="&#xd0;" glyph-name="Eth" horiz-adv-x="701" d="M352 662Q487 662 575 566T664 332Q664 185 574 94T332 0H34L28 32L113 68V280H22L16 311L59 354H113V597L42 604L43 654Q209 662 352 662ZM320 75Q415 75 473 146T531 329Q531 415 495 488T400
594L235 579V354H381L387 323L344 280H235V87Q276 75 320 75Z" />
<glyph unicode="&#xd1;" glyph-name="Ntilde" horiz-adv-x="759" d="M646 0L525 -12H524L525 -11L189 514L205 384V60L293 49L292 0H34L28 32L113 68V596L45 605L46 654H247L572 139L556 267V592L458 605L459 654H725L731 622Q701 605 648 587L646 0ZM149 754Q192
818 219 846T272 875Q295 875 336 857T471 789L556 859L589 830Q543 758 519 730T473 702Q450 702 370 743T272 784Q247 784 191 722L149 754Z" />
<glyph unicode="&#xd2;" glyph-name="Ograve" horiz-adv-x="664" d="M328 674Q467 674 557 576T647 319Q647 166 560 73T335 -20Q196 -20 107 74T17 323Q17 478 105 576T328 674ZM230 580Q193 551 171 485T148 339Q148 212 203 136T353 60Q386 60 420 69Q462 99
488 165T514 314Q514 440 460 518T315 596Q274 596 230 580ZM437 690Q317 741 190 789L244 886L476 755L437 690Z" />
<glyph unicode="&#xd3;" glyph-name="Oacute" horiz-adv-x="664" d="M328 674Q467 674 557 576T647 319Q647 166 560 73T335 -20Q196 -20 107 74T17 323Q17 478 105 576T328 674ZM230 580Q193 551 171 485T148 339Q148 212 203 136T353 60Q386 60 420 69Q462 99
488 165T514 314Q514 440 460 518T315 596Q274 596 230 580ZM442 886L496 789L249 690L210 755L442 886Z" />
<glyph unicode="&#xd4;" glyph-name="Ocircumflex" horiz-adv-x="664" d="M328 674Q467 674 557 576T647 319Q647 166 560 73T335 -20Q196 -20 107 74T17 323Q17 478 105 576T328 674ZM230 580Q193 551 171 485T148 339Q148 212 203 136T353 60Q386 60 420 69Q462
99 488 165T514 314Q514 440 460 518T315 596Q274 596 230 580ZM280 891H380L529 746L481 699L331 807L186 699L136 746L280 891Z" />
<glyph unicode="&#xd5;" glyph-name="Otilde" horiz-adv-x="664" d="M328 674Q467 674 557 576T647 319Q647 166 560 73T335 -20Q196 -20 107 74T17 323Q17 478 105 576T328 674ZM230 580Q193 551 171 485T148 339Q148 212 203 136T353 60Q386 60 420 69Q462 99
488 165T514 314Q514 440 460 518T315 596Q274 596 230 580ZM119 754Q162 818 189 846T242 875Q265 875 306 857T441 789L526 859L559 830Q513 758 489 730T443 702Q420 702 340 743T242 784Q217 784 161 722L119 754Z" />
<glyph unicode="&#xd6;" glyph-name="Odieresis" horiz-adv-x="664" d="M328 674Q467 674 557 576T647 319Q647 166 560 73T335 -20Q196 -20 107 74T17 323Q17 478 105 576T328 674ZM230 580Q193 551 171 485T148 339Q148 212 203 136T353 60Q386 60 420 69Q462
99 488 165T514 314Q514 440 460 518T315 596Q274 596 230 580ZM292 805Q277 753 230 731Q176 747 154 793Q160 848 218 879Q280 855 292 805ZM509 805Q494 753 446 731Q392 747 370 793Q378 848 435 879Q497 855 509 805Z" />
<glyph unicode="&#xd7;" glyph-name="multiply" horiz-adv-x="566" d="M496 403L337 239L494 77L436 21L283 183L129 21L72 77L228 238L70 402L130 456L284 294L437 457L496 403Z" />
<glyph unicode="&#xd8;" glyph-name="Oslash" horiz-adv-x="697" d="M537 595Q647 496 647 319Q647 166 560 73T335 -20Q277 -20 222 0L178 -84L112 -48L155 34Q17 127 17 323Q17 478 105 576T328 674Q407 674 474 639L525 735L590 696L537 595ZM148 339Q148 207
206 131L429 553Q381 596 315 596Q274 596 230 580Q193 551 171 485T148 339ZM420 69Q462 99 488 165T514 314Q514 414 479 485L265 81Q303 60 353 60Q386 60 420 69Z" />
<glyph unicode="&#xd9;" glyph-name="Ugrave" horiz-adv-x="718" d="M709 622Q684 608 624 586V280Q619 -19 374 -19Q241 -19 164 62T86 285V595L9 605L10 654H287L293 622Q268 608 208 586V269Q208 170 254 118T383 65Q432 65 474 86Q533 134 533 279V594L446
605L447 654H703L709 622ZM469 690Q349 741 222 789L276 886L508 755L469 690Z" />
<glyph unicode="&#xda;" glyph-name="Uacute" horiz-adv-x="718" d="M709 622Q684 608 624 586V280Q619 -19 374 -19Q241 -19 164 62T86 285V595L9 605L10 654H287L293 622Q268 608 208 586V269Q208 170 254 118T383 65Q432 65 474 86Q533 134 533 279V594L446
605L447 654H703L709 622ZM474 886L528 789L281 690L242 755L474 886Z" />
<glyph unicode="&#xdb;" glyph-name="Ucircumflex" horiz-adv-x="718" d="M709 622Q684 608 624 586V280Q619 -19 374 -19Q241 -19 164 62T86 285V595L9 605L10 654H287L293 622Q268 608 208 586V269Q208 170 254 118T383 65Q432 65 474 86Q533 134 533 279V594L446
605L447 654H703L709 622ZM312 891H412L561 746L513 699L363 807L218 699L168 746L312 891Z" />
<glyph unicode="&#xdc;" glyph-name="Udieresis" horiz-adv-x="718" d="M709 622Q684 608 624 586V280Q619 -19 374 -19Q241 -19 164 62T86 285V595L9 605L10 654H287L293 622Q268 608 208 586V269Q208 170 254 118T383 65Q432 65 474 86Q533 134 533 279V594L446
605L447 654H703L709 622ZM324 805Q309 753 262 731Q208 747 186 793Q192 848 250 879Q312 855 324 805ZM541 805Q526 753 478 731Q424 747 402 793Q410 848 467 879Q529 855 541 805Z" />
<glyph unicode="&#xdd;" glyph-name="Yacute" horiz-adv-x="622" d="M368 60L451 49L450 0H175L169 32Q197 47 248 66V250L62 597L-1 605L0 654H247L253 622L192 595L293 404L320 321H325L462 595L385 605L386 654H618L624 622Q591 604 549 590L368 255V60ZM432
886L486 789L239 690L200 755L432 886Z" />
<glyph unicode="&#xde;" glyph-name="Thorn" horiz-adv-x="609" d="M240 151V61L335 49L334 0H35L29 35Q56 51 118 72V590L37 601L38 650H323L329 616Q302 600 240 579V519H340Q444 519 509 467T574 334Q574 256 508 205T336 151H240ZM240 431V226L294 222Q374
222 410 253T447 335Q447 413 375 453L240 431Z" />
<glyph unicode="&#xdf;" glyph-name="germandbls" horiz-adv-x="578" d="M363 360Q372 331 442 285T534 203T557 126Q557 60 509 22T387 -17Q319 -17 248 17L287 121Q357 70 425 59Q445 87 445 113Q445 143 424 165T355 220T288 276T267 330L298 379Q331 428 347
461T364 530Q364 567 340 599Q315 606 288 606Q228 606 188 579L198 435V0H17L13 34Q40 48 83 62V380L15 379L10 430Q41 448 83 462V484Q84 573 139 629T282 686Q362 686 418 636T475 517Q475 429 363 360Z" />
<glyph unicode="&#xe0;" glyph-name="agrave" horiz-adv-x="526" d="M513 40L402 -16Q383 -14 358 6T320 55L210 -14L183 -16Q122 -16 83 20T43 107Q43 179 117 218L310 223V319Q310 399 262 424Q209 422 168 408L155 302L87 299Q60 355 62 429Q111 454 186 475T297
496Q331 496 364 475T416 425Q427 405 428 349V98Q428 77 453 77L501 84L513 40ZM186 66Q234 66 310 96V168L275 169Q163 169 163 111Q163 82 186 66ZM279 530Q182 622 112 679L197 751L343 581L279 530Z" />
<glyph unicode="&#xe1;" glyph-name="aacute" horiz-adv-x="526" d="M513 40L402 -16Q383 -14 358 6T320 55L210 -14L183 -16Q122 -16 83 20T43 107Q43 179 117 218L310 223V319Q310 399 262 424Q209 422 168 408L155 302L87 299Q60 355 62 429Q111 454 186 475T297
496Q331 496 364 475T416 425Q427 405 428 349V98Q428 77 453 77L501 84L513 40ZM186 66Q234 66 310 96V168L275 169Q163 169 163 111Q163 82 186 66ZM163 581L309 751L394 679Q324 622 227 530L163 581Z" />
<glyph unicode="&#xe2;" glyph-name="acircumflex" horiz-adv-x="526" d="M513 40L402 -16Q383 -14 358 6T320 55L210 -14L183 -16Q122 -16 83 20T43 107Q43 179 117 218L310 223V319Q310 399 262 424Q209 422 168 408L155 302L87 299Q60 355 62 429Q111 454 186
475T297 496Q331 496 364 475T416 425Q427 405 428 349V98Q428 77 453 77L501 84L513 40ZM186 66Q234 66 310 96V168L275 169Q163 169 163 111Q163 82 186 66ZM210 724H303L430 580L383 535L253 642L135 531L82 573L210 724Z" />
<glyph unicode="&#xe3;" glyph-name="atilde" horiz-adv-x="526" d="M513 40L402 -16Q383 -14 358 6T320 55L210 -14L183 -16Q122 -16 83 20T43 107Q43 179 117 218L310 223V319Q310 399 262 424Q209 422 168 408L155 302L87 299Q60 355 62 429Q111 454 186 475T297
496Q331 496 364 475T416 425Q427 405 428 349V98Q428 77 453 77L501 84L513 40ZM186 66Q234 66 310 96V168L275 169Q163 169 163 111Q163 82 186 66ZM60 585Q105 655 134 685T192 715Q225 715 344 627L420 706L462 675Q388 542 344 542Q320 542 254 589L236 601Q201
625 188 625Q168 625 103 551L60 585Z" />
<glyph unicode="&#xe4;" glyph-name="adieresis" horiz-adv-x="526" d="M513 40L402 -16Q383 -14 358 6T320 55L210 -14L183 -16Q122 -16 83 20T43 107Q43 179 117 218L310 223V319Q310 399 262 424Q209 422 168 408L155 302L87 299Q60 355 62 429Q111 454 186
475T297 496Q331 496 364 475T416 425Q427 405 428 349V98Q428 77 453 77L501 84L513 40ZM186 66Q234 66 310 96V168L275 169Q163 169 163 111Q163 82 186 66ZM213 622Q198 570 151 548Q97 564 75 610Q81 665 139 696Q201 672 213 622ZM430 622Q415 570 367 548Q313
564 291 610Q299 665 356 696Q418 672 430 622Z" />
<glyph unicode="&#xe5;" glyph-name="aring" horiz-adv-x="526" d="M513 40L402 -16Q383 -14 358 6T320 55L210 -14L183 -16Q122 -16 83 20T43 107Q43 179 117 218L310 223V319Q310 399 262 424Q209 422 168 408L155 302L87 299Q60 355 62 429Q111 454 186 475T297
496Q331 496 364 475T416 425Q427 405 428 349V98Q428 77 453 77L501 84L513 40ZM186 66Q234 66 310 96V168L275 169Q163 169 163 111Q163 82 186 66ZM139 641Q139 689 171 722T252 755T333 722T366 639Q366 590 335 560T256 529Q207 529 173 560T139 641ZM194
604T211 588T254 572T294 587T310 628Q310 654 294 670T253 687Q228 687 211 671T194 629Z" />
<glyph unicode="&#xe6;" glyph-name="ae" horiz-adv-x="762" d="M424 252Q424 159 468 116T583 73Q640 73 714 107L732 60L576 -14Q441 -20 367 69L210 -14L183 -16Q122 -16 83 20T43 107Q43 179 117 218L311 223V317Q311 363 300 386T263 422Q207 420 169 407L156
301L86 299Q61 353 63 428Q115 453 189 474T302 495Q353 493 399 433Q462 492 549 492Q633 492 687 440T741 304L738 303L681 248L424 252ZM506 424Q446 390 430 312L630 322Q622 368 588 396T506 424ZM186 66Q232 66 340 108Q326 135 318 168H314L277 169Q163
169 163 111Q163 82 186 66Z" />
<glyph unicode="&#xe7;" glyph-name="ccedilla" horiz-adv-x="431" d="M274 -14L263 -15L236 -58Q292 -58 324 -83T357 -143Q357 -189 309 -222T171 -267L156 -233Q206 -217 233 -193T261 -145Q261 -102 185 -108L158 -67L207 -10Q120 6 69 73T17 236Q17 347 84
419T253 492Q364 492 421 405L340 332Q270 406 192 420Q135 354 135 258Q135 175 175 123T288 71Q337 71 394 97L413 50L274 -14Z" />
<glyph unicode="&#xe8;" glyph-name="egrave" horiz-adv-x="467" d="M134 252Q134 167 178 120T292 73Q346 73 420 107L438 60L282 -14Q166 -20 92 49T17 229Q17 337 86 414T255 492Q339 492 393 440T447 304L389 248L134 252ZM212 424Q159 394 141 312L336 322Q328
368 294 396T212 424ZM275 530Q178 622 108 679L193 751L339 581L275 530Z" />
<glyph unicode="&#xe9;" glyph-name="eacute" horiz-adv-x="467" d="M134 252Q134 167 178 120T292 73Q346 73 420 107L438 60L282 -14Q166 -20 92 49T17 229Q17 337 86 414T255 492Q339 492 393 440T447 304L389 248L134 252ZM212 424Q159 394 141 312L336 322Q328
368 294 396T212 424ZM159 581L305 751L390 679Q320 622 223 530L159 581Z" />
<glyph unicode="&#xea;" glyph-name="ecircumflex" horiz-adv-x="467" d="M134 252Q134 167 178 120T292 73Q346 73 420 107L438 60L282 -14Q166 -20 92 49T17 229Q17 337 86 414T255 492Q339 492 393 440T447 304L389 248L134 252ZM212 424Q159 394 141 312L336
322Q328 368 294 396T212 424ZM206 724H299L426 580L379 535L249 642L131 531L78 573L206 724Z" />
<glyph unicode="&#xeb;" glyph-name="edieresis" horiz-adv-x="467" d="M134 252Q134 167 178 120T292 73Q346 73 420 107L438 60L282 -14Q166 -20 92 49T17 229Q17 337 86 414T255 492Q339 492 393 440T447 304L389 248L134 252ZM212 424Q159 394 141 312L336
322Q328 368 294 396T212 424ZM209 622Q194 570 147 548Q93 564 71 610Q77 665 135 696Q197 672 209 622ZM426 622Q411 570 363 548Q309 564 287 610Q295 665 352 696Q414 672 426 622Z" />
<glyph unicode="&#xec;" glyph-name="igrave" horiz-adv-x="294" d="M214 71Q255 60 276 48L272 0H29L25 34Q49 47 97 62V405L22 406L12 454Q81 482 169 487L214 447V71ZM166 530Q69 622 -1 679L84 751L230 581L166 530Z" />
<glyph unicode="&#xed;" glyph-name="iacute" horiz-adv-x="294" d="M214 71Q255 60 276 48L272 0H29L25 34Q49 47 97 62V405L22 406L12 454Q81 482 169 487L214 447V71ZM50 581L196 751L281 679Q211 622 114 530L50 581Z" />
<glyph unicode="&#xee;" glyph-name="icircumflex" horiz-adv-x="294" d="M214 71Q255 60 276 48L272 0H29L25 34Q49 47 97 62V405L22 406L12 454Q81 482 169 487L214 447V71ZM97 724H190L317 580L270 535L140 642L22 531L-31 573L97 724Z" />
<glyph unicode="&#xef;" glyph-name="idieresis" horiz-adv-x="294" d="M214 71Q255 60 276 48L272 0H29L25 34Q49 47 97 62V405L22 406L12 454Q81 482 169 487L214 447V71ZM100 622Q85 570 38 548Q-16 564 -38 610Q-32 665 26 696Q88 672 100 622ZM317 622Q302
570 254 548Q200 564 178 610Q186 665 243 696Q305 672 317 622Z" />
<glyph unicode="&#xf0;" glyph-name="eth" horiz-adv-x="508" d="M379 624Q433 532 460 436T487 260Q487 132 423 54T257 -25Q157 -25 88 49T19 233Q19 339 84 410T244 481Q299 481 345 448Q313 532 287 578L204 537L155 563L144 594L246 645L191 719L277 766L336
691L430 738L467 668L379 624ZM304 55Q372 119 372 256Q372 297 364 343Q291 406 213 408Q178 385 157 335T136 231Q136 153 177 104T286 54L304 55Z" />
<glyph unicode="&#xf1;" glyph-name="ntilde" horiz-adv-x="607" d="M520 72Q566 62 591 48L586 0H351L347 34L403 57V292Q403 395 340 395Q297 395 214 342V71Q255 60 276 48L272 0H29L25 34Q49 47 97 62V407L22 408L12 456Q81 484 169 489L214 447V390Q336 477
400 488Q430 484 460 465T507 419Q519 397 520 328V72ZM109 585Q154 655 183 685T241 715Q274 715 393 627L469 706L511 675Q437 542 393 542Q369 542 303 589L285 601Q250 625 237 625Q217 625 152 551L109 585Z" />
<glyph unicode="&#xf2;" glyph-name="ograve" horiz-adv-x="503" d="M17 238Q17 350 83 421T251 492T416 421T481 233Q481 118 418 49T254 -20Q151 -20 84 52T17 238ZM305 60Q360 97 360 222Q360 308 332 363T244 419Q206 419 180 400Q139 349 139 245Q139 163
170 108T263 53Q283 53 305 60ZM275 530Q178 622 108 679L193 751L339 581L275 530Z" />
<glyph unicode="&#xf3;" glyph-name="oacute" horiz-adv-x="503" d="M17 238Q17 350 83 421T251 492T416 421T481 233Q481 118 418 49T254 -20Q151 -20 84 52T17 238ZM305 60Q360 97 360 222Q360 308 332 363T244 419Q206 419 180 400Q139 349 139 245Q139 163
170 108T263 53Q283 53 305 60ZM159 581L305 751L390 679Q320 622 223 530L159 581Z" />
<glyph unicode="&#xf4;" glyph-name="ocircumflex" horiz-adv-x="503" d="M17 238Q17 350 83 421T251 492T416 421T481 233Q481 118 418 49T254 -20Q151 -20 84 52T17 238ZM305 60Q360 97 360 222Q360 308 332 363T244 419Q206 419 180 400Q139 349 139 245Q139
163 170 108T263 53Q283 53 305 60ZM206 724H299L426 580L379 535L249 642L131 531L78 573L206 724Z" />
<glyph unicode="&#xf5;" glyph-name="otilde" horiz-adv-x="503" d="M17 238Q17 350 83 421T251 492T416 421T481 233Q481 118 418 49T254 -20Q151 -20 84 52T17 238ZM305 60Q360 97 360 222Q360 308 332 363T244 419Q206 419 180 400Q139 349 139 245Q139 163
170 108T263 53Q283 53 305 60ZM56 585Q101 655 130 685T188 715Q221 715 340 627L416 706L458 675Q384 542 340 542Q316 542 250 589L232 601Q197 625 184 625Q164 625 99 551L56 585Z" />
<glyph unicode="&#xf6;" glyph-name="odieresis" horiz-adv-x="503" d="M17 238Q17 350 83 421T251 492T416 421T481 233Q481 118 418 49T254 -20Q151 -20 84 52T17 238ZM305 60Q360 97 360 222Q360 308 332 363T244 419Q206 419 180 400Q139 349 139 245Q139
163 170 108T263 53Q283 53 305 60ZM209 622Q194 570 147 548Q93 564 71 610Q77 665 135 696Q197 672 209 622ZM426 622Q411 570 363 548Q309 564 287 610Q295 665 352 696Q414 672 426 622Z" />
<glyph unicode="&#xf7;" glyph-name="divide" horiz-adv-x="600" d="M376 421Q358 366 312 345Q276 353 260 370T231 410Q235 446 255 465T299 498Q359 473 376 421ZM542 201H58V278H542V201ZM375 56Q356 0 311 -21Q260 -10 246 16T230 44Q236 101 298 132Q358
108 375 56Z" />
<glyph unicode="&#xf8;" glyph-name="oslash" horiz-adv-x="506" d="M419 418Q481 348 481 233T418 49T254 -20Q202 -20 155 1L106 -77L43 -35L93 44Q17 116 17 238Q17 350 83 421T251 492Q311 492 361 465L400 527L464 488L419 418ZM139 245Q139 186 155 141L313
390Q284 419 244 419Q206 419 180 400Q139 349 139 245ZM305 60Q360 97 360 222Q360 270 351 310L201 73Q227 53 263 53Q283 53 305 60Z" />
<glyph unicode="&#xf9;" glyph-name="ugrave" horiz-adv-x="590" d="M582 40L471 -16Q450 -14 424 10T387 64Q287 -4 204 -16Q173 -11 142 11T97 58T84 162V407L10 408L0 456Q70 485 157 489V488L201 449V157Q204 76 266 76Q313 76 380 114V407L311 409L301 457Q371
487 452 489L497 449V98Q497 77 523 77L570 84L582 40ZM296 530Q199 622 129 679L214 751L360 581L296 530Z" />
<glyph unicode="&#xfa;" glyph-name="uacute" horiz-adv-x="590" d="M582 40L471 -16Q450 -14 424 10T387 64Q287 -4 204 -16Q173 -11 142 11T97 58T84 162V407L10 408L0 456Q70 485 157 489V488L201 449V157Q204 76 266 76Q313 76 380 114V407L311 409L301 457Q371
487 452 489L497 449V98Q497 77 523 77L570 84L582 40ZM180 581L326 751L411 679Q341 622 244 530L180 581Z" />
<glyph unicode="&#xfb;" glyph-name="ucircumflex" horiz-adv-x="590" d="M582 40L471 -16Q450 -14 424 10T387 64Q287 -4 204 -16Q173 -11 142 11T97 58T84 162V407L10 408L0 456Q70 485 157 489V488L201 449V157Q204 76 266 76Q313 76 380 114V407L311 409L301
457Q371 487 452 489L497 449V98Q497 77 523 77L570 84L582 40ZM227 724H320L447 580L400 535L270 642L152 531L99 573L227 724Z" />
<glyph unicode="&#xfc;" glyph-name="udieresis" horiz-adv-x="590" d="M582 40L471 -16Q450 -14 424 10T387 64Q287 -4 204 -16Q173 -11 142 11T97 58T84 162V407L10 408L0 456Q70 485 157 489V488L201 449V157Q204 76 266 76Q313 76 380 114V407L311 409L301
457Q371 487 452 489L497 449V98Q497 77 523 77L570 84L582 40ZM230 622Q215 570 168 548Q114 564 92 610Q98 665 156 696Q218 672 230 622ZM447 622Q432 570 384 548Q330 564 308 610Q316 665 373 696Q435 672 447 622Z" />
<glyph unicode="&#xfd;" glyph-name="yacute" horiz-adv-x="522" d="M531 431L472 407Q408 191 360 65Q322 -27 264 -96T113 -219L50 -109Q176 -64 244 0Q207 12 180 32L45 404L-16 421L-15 472H222L227 431L172 408L239 198L253 97H271Q318 231 354 409L298 421L299
472H526L531 431ZM175 581L321 751L406 679Q336 622 239 530L175 581Z" />
<glyph unicode="&#xfe;" glyph-name="thorn" horiz-adv-x="544" d="M253 -19Q218 -19 184 -12V-129Q244 -143 269 -155L265 -203H5L1 -170L67 -145V21H66V650L-12 654L-21 702Q61 734 140 736V735L184 695V406L300 484L338 488Q418 488 470 421T522 254Q522 135
447 58T253 -19ZM285 393Q246 393 184 356V83Q231 56 287 56L323 59Q359 83 379 130T400 231Q400 297 368 345T285 393Z" />
<glyph unicode="&#xff;" glyph-name="ydieresis" horiz-adv-x="522" d="M531 431L472 407Q408 191 360 65Q322 -27 264 -96T113 -219L50 -109Q176 -64 244 0Q207 12 180 32L45 404L-16 421L-15 472H222L227 431L172 408L239 198L253 97H271Q318 231 354 409L298
421L299 472H526L531 431ZM225 622Q210 570 163 548Q109 564 87 610Q93 665 151 696Q213 672 225 622ZM442 622Q427 570 379 548Q325 564 303 610Q311 665 368 696Q430 672 442 622Z" />
<glyph unicode="&#x2013;" glyph-name="endash" horiz-adv-x="560" d="M513 304L517 268L469 219H46L39 276Q93 304 157 304H513Z" />
<glyph unicode="&#x2014;" glyph-name="emdash" horiz-adv-x="992" d="M945 304L949 268L902 219H46L39 276Q93 304 161 304H945Z" />
<glyph unicode="&#x2018;" glyph-name="quoteleft" horiz-adv-x="231" d="M191 716Q132 672 123 606L177 562Q173 535 153 511T106 476Q28 507 28 578Q28 628 63 677T159 757L191 716Z" />
<glyph unicode="&#x2019;" glyph-name="quoteright" horiz-adv-x="232" d="M40 517Q102 563 108 627L54 671Q58 698 78 722T126 757Q204 725 204 653Q204 603 168 555T72 476L40 517Z" />
<glyph unicode="&#x201a;" glyph-name="quotesinglbase" horiz-adv-x="232" d="M40 -83Q102 -37 108 27L54 71Q58 98 78 122T126 157Q204 125 204 53Q204 3 168 -45T72 -124L40 -83Z" />
<glyph unicode="&#x201c;" glyph-name="quotedblleft" horiz-adv-x="413" d="M191 716Q132 672 123 606L177 562Q173 535 153 511T106 476Q28 507 28 578Q28 628 63 677T159 757L191 716ZM373 716Q314 672 305 606L359 562Q355 535 335 511T288 476Q210 507 210
578Q210 628 245 677T341 757L373 716Z" />
<glyph unicode="&#x201d;" glyph-name="quotedblright" horiz-adv-x="414" d="M40 517Q102 563 108 627L54 671Q58 698 78 722T126 757Q204 725 204 653Q204 603 168 555T72 476L40 517ZM222 517Q284 563 290 627L236 671Q240 698 260 722T308 757Q386 725 386
653Q386 603 350 555T254 476L222 517Z" />
<glyph unicode="&#x201e;" glyph-name="quotedblbase" horiz-adv-x="414" d="M40 -83Q102 -37 108 27L54 71Q58 98 78 122T126 157Q204 125 204 53Q204 3 168 -45T72 -124L40 -83ZM222 -83Q284 -37 290 27L236 71Q240 98 260 122T308 157Q386 125 386 53Q386 3
350 -45T254 -124L222 -83Z" />
<glyph unicode="&#x2022;" glyph-name="bullet" horiz-adv-x="413" d="M337 261Q314 168 220 122Q117 151 76 240Q95 348 198 400Q303 360 337 261Z" />
<glyph unicode="&#x2039;" glyph-name="guilsinglleft" horiz-adv-x="331" d="M203 467L268 429L170 253L273 86L207 42L58 227V280L203 467Z" />
<glyph unicode="&#x203a;" glyph-name="guilsinglright" horiz-adv-x="331" d="M273 227L124 42L58 86L162 253L64 429L129 467L273 280V227Z" />
</font>
</defs>
</svg>
