<?xml version="1.0" standalone="no"?>
<!DOCTYPE svg PUBLIC "-//W3C//DTD SVG 1.1//EN" "http://www.w3.org/Graphics/SVG/1.1/DTD/svg11.dtd">
<svg xmlns="http://www.w3.org/2000/svg">
<defs >
<font id="Eczar" horiz-adv-x="628" ><font-face
    font-family="Eczar SemiBold"
    units-per-em="1000"
    panose-1="2 0 6 3 4 3 0 0 0 4"
    ascent="1143"
    descent="-634"
    alphabetic="0" />
<glyph unicode=" " glyph-name="space" horiz-adv-x="265" />
<glyph unicode="!" glyph-name="exclam" horiz-adv-x="332" d="M77 677Q113 696 169 696Q227 696 256 675L214 238H117L77 677ZM161 163Q237 130 253 71Q233 9 176 -20Q109 -2 80 57Q90 126 161 163Z" />
<glyph unicode="&quot;" glyph-name="quotedbl" horiz-adv-x="409" d="M17 450Q39 507 49 563T59 655L99 694L197 674Q201 639 173 557T104 419L17 450ZM225 450Q247 507 257 563T267 655L307 694L405 674Q409 639 381 557T312 419L225 450Z" />
<glyph unicode="#" glyph-name="numbersign" horiz-adv-x="622" d="M466 334L445 201H537V128H434L413 -11L332 0L352 128H232L211 -11L130 0L150 128H56V201H161L181 334H85V407H192L211 530L292 521L275 407H394L413 530L494 521L477 407H566V334H466ZM383 334H264L243
201H363L383 334Z" />
<glyph unicode="$" glyph-name="dollar" horiz-adv-x="576" d="M539 181Q539 105 488 54T357 -14V-145H254V-18Q131 -7 53 44L52 72Q52 155 68 230H140L189 90Q252 61 333 61Q388 87 388 145Q388 198 323 234L173 310Q54 378 54 481Q54 557 109 608T254 674V785H356V676Q438
667 509 642Q509 536 492 459H412L383 571Q325 601 244 599Q198 570 198 518Q198 488 224 464T332 402T452 339T515 274T539 181Z" />
<glyph unicode="%" glyph-name="percent" horiz-adv-x="828" d="M48 434Q48 501 93 550T201 600Q265 600 310 550T355 431Q355 364 312 318T206 271Q142 271 95 318T48 434ZM600 595L664 543L211 -29L146 24L600 595ZM228 350Q262 376 262 432Q262 468 244 494T194
520Q181 520 169 516Q139 484 139 436Q139 399 158 374T212 349L228 350ZM473 143Q473 210 518 259T626 309Q690 309 735 259T780 140Q780 73 737 27T631 -20Q567 -20 520 27T473 143ZM653 58Q687 86 687 141Q687 177 669 202T618 228L594 225Q564 193 564 144Q564
107 583 82T638 57L653 58Z" />
<glyph unicode="&amp;" glyph-name="ampersand" horiz-adv-x="689" d="M685 316Q612 361 560 363Q595 296 595 223Q595 112 517 43T310 -27T99 37T16 200Q16 258 46 300T125 365Q37 410 37 498Q37 571 101 619T267 668Q370 668 468 626L423 506L237 578Q208 565
191 538T173 478Q173 430 208 396L313 362L299 296Q232 297 193 263T154 177Q154 121 198 90T307 58Q364 58 408 80Q471 125 471 214Q471 276 440 330L379 294L344 357Q529 468 619 468Q676 468 721 429L685 316Z" />
<glyph unicode="&apos;" glyph-name="quotesingle" horiz-adv-x="181" d="M-25 508Q13 605 8 709L48 748L146 732Q145 673 121 602T61 477L-25 508Z" />
<glyph unicode="(" glyph-name="parenleft" horiz-adv-x="331" d="M208 -155Q28 68 28 300Q28 528 215 732L299 686Q176 494 176 305Q176 113 294 -108L208 -155Z" />
<glyph unicode=")" glyph-name="parenright" horiz-adv-x="330" d="M36 -108Q154 113 154 305Q154 494 31 686L115 732Q302 528 302 300Q302 68 122 -155L36 -108Z" />
<glyph unicode="*" glyph-name="asterisk" horiz-adv-x="402" d="M170 628L137 591L51 679L112 768L170 628ZM213 620L167 641L226 750L329 717L213 620ZM224 577L229 626L351 605L352 498L224 577ZM154 589L180 546L67 491L4 580L154 589ZM186 556L235 566L252
443L149 409L186 556Z" />
<glyph unicode="+" glyph-name="plus" horiz-adv-x="570" d="M514 205H334V16H237V205H56V293H237V482H334V293H514V205Z" />
<glyph unicode="," glyph-name="comma" horiz-adv-x="287" d="M46 -97Q111 -43 115 14L62 57Q72 124 141 161Q230 128 230 48Q230 -5 189 -59T84 -143L46 -97Z" />
<glyph unicode="-" glyph-name="hyphen" horiz-adv-x="427" d="M32 308L49 342H336L384 266L367 231H80L32 308Z" />
<glyph unicode="." glyph-name="period" horiz-adv-x="260" d="M187 -39Q164 -30 135 -8T91 35Q126 105 168 129Q219 110 260 55Q237 -5 187 -39Z" />
<glyph unicode="/" glyph-name="slash" horiz-adv-x="416" d="M328 723L417 684L111 -122L20 -85L328 723Z" />
<glyph unicode="0" glyph-name="zero" horiz-adv-x="589" d="M31 321Q31 469 106 567T300 665Q414 665 484 574T555 334Q555 177 483 82T293 -14Q176 -14 104 80T31 321ZM246 575Q215 543 199 473T182 333Q182 222 217 147T311 72Q328 72 343 77Q374 111 389 179T405
320Q405 428 373 504T279 580L246 575Z" />
<glyph unicode="1" glyph-name="one" horiz-adv-x="438" d="M432 52L428 0H36L30 33Q86 61 167 83V519L48 469L15 527L247 670L312 627V71L432 52Z" />
<glyph unicode="2" glyph-name="two" horiz-adv-x="581" d="M534 193Q530 91 502 0L491 2V0H58L38 81L260 325Q350 429 350 492Q350 532 324 560T246 588L199 583L160 422H68Q52 488 52 572L53 604Q163 670 276 670Q372 670 436 616T500 479Q500 423 467 370T355
235L208 83L211 75L402 100L465 209L534 193Z" />
<glyph unicode="3" glyph-name="three" horiz-adv-x="571" d="M370 348Q434 339 479 288T524 173Q524 90 454 35T271 -20Q154 -20 48 31L86 167Q243 78 338 78Q373 115 373 161Q373 209 335 243T229 277L168 275L165 355Q246 355 294 391T343 483Q343 529 309
559T217 590L195 589L159 450H72Q59 502 59 567L61 610L60 611Q101 639 158 654T272 670Q371 670 432 623T494 502Q494 454 463 412T370 348Z" />
<glyph unicode="4" glyph-name="four" horiz-adv-x="598" d="M458 163V64L535 52L531 0H207L201 33Q248 57 317 78V163H48L17 244L346 670L419 656V654L458 656V258L570 261L573 191L543 163H458ZM317 255V428L325 513L151 251L317 255Z" />
<glyph unicode="5" glyph-name="five" horiz-adv-x="565" d="M283 400Q387 398 454 341T521 194Q521 100 454 39T279 -22Q222 -22 157 -4T39 48L87 180Q224 76 346 76Q388 116 388 166Q388 227 341 258T221 289Q172 289 124 272L72 323L104 650H457V648L489 650L490
618Q490 528 474 462L384 461L365 559L216 567L200 387Q230 400 283 400Z" />
<glyph unicode="6" glyph-name="six" horiz-adv-x="564" d="M213 337Q279 396 359 396Q433 396 484 340T535 201Q535 105 470 43T304 -20Q187 -20 112 59T36 263Q36 360 83 451T230 602T479 661V517L306 544Q247 515 215 439T182 275Q182 179 221 117T334 59Q395
96 395 178Q395 229 371 265T308 301Q273 301 235 273L213 337Z" />
<glyph unicode="7" glyph-name="seven" horiz-adv-x="493" d="M494 562Q338 298 223 -19L83 28Q215 333 363 549L356 557L149 549L133 450L39 451Q23 517 23 617L24 650H451L494 562Z" />
<glyph unicode="8" glyph-name="eight" horiz-adv-x="548" d="M378 351Q440 314 475 271T510 167Q510 85 444 32T273 -21Q170 -21 104 29T38 157Q38 210 70 255T162 329Q57 394 57 489Q57 566 118 617T277 668Q368 668 427 623T487 507Q487 412 378 351ZM217 583Q189
549 189 513Q189 476 218 450T305 392Q366 439 366 500Q366 540 340 567T271 594Q243 594 217 583ZM349 63Q374 105 374 139Q374 180 346 212T248 281Q180 234 180 158Q180 113 208 83T287 52Q313 52 349 63Z" />
<glyph unicode="9" glyph-name="nine" horiz-adv-x="547" d="M338 253Q288 234 241 234Q150 234 89 296T28 450Q28 546 94 608T263 670Q378 670 448 588T519 373Q519 258 464 169T314 33T108 -9L85 140L266 106Q324 140 351 212T378 370Q378 461 349 523T259 586L233
583Q206 569 191 535T176 460Q176 403 208 365T292 326L327 331L338 253Z" />
<glyph unicode=":" glyph-name="colon" horiz-adv-x="351" d="M255 380Q236 319 178 288Q110 308 82 365Q92 434 163 471Q239 438 255 380ZM255 71Q235 9 178 -20Q111 -2 82 57Q92 126 163 163Q239 130 255 71Z" />
<glyph unicode=";" glyph-name="semicolon" horiz-adv-x="290" d="M233 380Q214 319 156 288Q88 308 60 365Q70 434 141 471Q217 438 233 380ZM46 -97Q111 -43 115 14L62 57Q72 124 141 161Q230 128 230 48Q230 -5 189 -59T84 -143L46 -97Z" />
<glyph unicode="&lt;" glyph-name="less" horiz-adv-x="576" d="M505 424L197 244L198 238L506 75L462 -6L73 202L68 272L462 500L505 424Z" />
<glyph unicode="=" glyph-name="equal" horiz-adv-x="584" d="M528 304H56V385H528V304ZM528 120H56V201H528V120Z" />
<glyph unicode="&gt;" glyph-name="greater" horiz-adv-x="576" d="M114 500L508 272L503 202L114 -6L70 75L378 238L379 244L71 424L114 500Z" />
<glyph unicode="?" glyph-name="question" horiz-adv-x="622" d="M298 703Q395 703 458 649T522 510Q522 441 469 392L395 329Q352 289 347 243H223Q223 315 272 369L347 444Q378 479 378 519Q378 582 324 609Q282 609 239 592L198 460H112L103 512Q90 602 93
627V628Q186 703 298 703ZM295 163Q371 130 387 71Q367 9 310 -20Q243 -2 214 57Q224 126 295 163Z" />
<glyph unicode="@" glyph-name="at" horiz-adv-x="1067" d="M548 709Q697 709 801 652T957 503T1009 311Q1009 183 934 93T735 -16Q642 -20 605 55L496 -13L465 -15Q402 -15 361 22T320 110Q320 183 398 225L590 229V315Q590 392 542 417Q496 415 467 404L449
296L365 293Q343 357 343 414L344 434Q400 458 476 476T592 495Q629 495 666 474T723 424Q734 404 735 348V112Q735 82 755 82Q777 82 805 112T850 195T867 306Q867 440 781 522T554 604Q402 604 307 512T211 275Q211 135 302 12L221 -39Q145 35 106 122T67 298Q67
408 124 502T291 652T548 709ZM486 74Q524 75 590 98V171Q465 178 465 118Q465 91 486 74Z" />
<glyph unicode="A" glyph-name="A" horiz-adv-x="719" d="M726 51L725 0H410L404 32Q432 49 491 74L449 182H211L167 64L259 51L258 0H-14L-20 32Q10 51 63 72L284 615L272 646L403 682L655 61L726 51ZM420 258L330 494L240 258H420Z" />
<glyph unicode="B" glyph-name="B" horiz-adv-x="668" d="M478 349Q554 335 595 289T637 182Q637 101 568 52T378 0H32L26 32Q55 51 111 73V598L40 607L41 658Q187 666 353 666Q467 666 536 619T605 497Q605 447 573 404T478 349ZM263 573V376H309Q380 376 415
406T451 481Q451 517 429 548T372 588L263 573ZM343 77L360 76Q416 76 446 108T476 184Q476 235 440 272T348 310H263V85L343 77Z" />
<glyph unicode="C" glyph-name="C" horiz-adv-x="582" d="M570 72L365 -16Q242 -20 163 28T47 153T11 321Q11 413 49 495T163 627T347 678Q463 678 553 615Q555 583 549 529T531 435H439L415 560Q346 590 264 590Q215 553 191 486T166 345Q166 226 224 156T381
89L546 143L570 72Z" />
<glyph unicode="D" glyph-name="D" horiz-adv-x="706" d="M362 666Q465 666 539 618T653 494T692 334Q692 188 602 96T361 0H32L26 32Q55 51 111 73V598L40 607L41 658Q185 666 362 666ZM339 83Q425 83 478 152T532 328Q532 411 498 483T408 588L263 573V95Q304
83 339 83Z" />
<glyph unicode="E" glyph-name="E" horiz-adv-x="617" d="M567 199Q569 101 555 0H32L26 32Q55 51 111 73V598L37 607L38 658H560Q565 576 544 468H460L443 567L263 580V365L478 382V281L263 290V83L450 96L483 205L567 199Z" />
<glyph unicode="F" glyph-name="F" horiz-adv-x="599" d="M260 580V346L483 362V257L260 267V68L380 51L379 0H33L27 32Q58 51 108 72V598L34 607L35 658H557Q562 571 541 464H457L440 567L260 580Z" />
<glyph unicode="G" glyph-name="G" horiz-adv-x="695" d="M597 239V69L384 -20L354 -21Q237 -21 160 28T47 155T11 316Q11 411 53 494T178 627T376 678Q503 678 589 617L590 597Q590 526 568 447H477L453 559Q377 591 294 591L270 590Q218 553 192 485T166 336Q166
224 222 152T370 78Q403 77 457 86V224Q404 243 357 269L363 303H672L673 255L597 239Z" />
<glyph unicode="H" glyph-name="H" horiz-adv-x="803" d="M777 51L776 0H453L447 32Q476 51 532 73V284H263V64L355 51L354 0H32L26 32Q55 51 111 73V596L34 607L35 658H341L347 626Q310 604 263 585V370H532V596L455 607L456 658H763L769 626Q737 606 684 585V64L777
51Z" />
<glyph unicode="I" glyph-name="I" horiz-adv-x="382" d="M355 51L354 0H32L26 32Q55 51 111 73V596L34 607L35 658H341L347 626Q310 604 263 585V64L355 51Z" />
<glyph unicode="J" glyph-name="J" horiz-adv-x="386" d="M362 626Q335 609 276 584V129Q276 7 209 -65T17 -186L-18 -131Q64 -79 94 -19T125 133V594L36 607L37 658H356L362 626Z" />
<glyph unicode="K" glyph-name="K" horiz-adv-x="719" d="M710 52L709 0H508L304 286L263 243V63L347 51L346 0H32L26 32Q55 51 111 73V596L33 607L34 658H341L347 626Q310 604 263 585V361L484 597L418 607L419 658H667L673 626Q652 612 590 589L403 391L648 62L710 52Z" />
<glyph unicode="L" glyph-name="L" horiz-adv-x="596" d="M589 194Q589 74 576 0H32L26 32Q55 51 111 73V596L34 607L35 658H341L347 626Q310 604 263 585V84L463 100L502 238L589 230V194Z" />
<glyph unicode="M" glyph-name="M" horiz-adv-x="954" d="M928 47L927 0H609L603 32Q632 51 688 73L685 342L699 513L514 16L399 -7L213 508L229 342L224 64L308 47L307 0H31L25 32Q58 52 114 75L128 586L46 603L47 650H311L310 649L487 156L668 650H901L907 618Q875
598 825 578L834 66L928 47Z" />
<glyph unicode="N" glyph-name="N" horiz-adv-x="774" d="M747 626Q716 607 666 586L662 0L521 -13L205 472L220 349V64L308 51L307 0H32L26 32Q55 51 111 73V596L41 607L42 658H264L263 657L572 174L557 301V593L460 607L461 658H741L747 626Z" />
<glyph unicode="O" glyph-name="O" horiz-adv-x="675" d="M334 678Q477 678 569 579T661 320Q661 167 572 74T342 -20Q198 -20 106 75T14 325Q14 481 104 579T334 678ZM248 576Q215 548 195 485T174 343Q174 222 222 145T359 68Q382 68 416 77Q454 107 477 172T500
317Q500 438 451 514T321 590Q287 590 248 576Z" />
<glyph unicode="P" glyph-name="P" horiz-adv-x="632" d="M260 237V68L380 51L379 0H33L27 32Q58 51 108 72V598L34 607L35 658L358 666Q474 666 545 605T617 449Q617 360 549 300T374 238L260 237ZM260 573V326Q300 318 337 318Q398 318 429 356T460 451Q460
494 444 533T399 588L260 573Z" />
<glyph unicode="Q" glyph-name="Q" horiz-adv-x="713" d="M676 -182L379 -18L342 -20Q198 -20 106 75T14 325Q14 481 104 579T334 678Q477 678 569 579T661 320Q661 209 616 132T493 15L743 -48L676 -182ZM174 343Q174 222 222 145T359 68Q382 68 416 77Q454 107
477 172T500 317Q500 438 451 514T321 590Q287 590 248 576Q215 548 195 485T174 343Z" />
<glyph unicode="R" glyph-name="R" horiz-adv-x="692" d="M683 51L682 0H482L346 255L263 254V64L353 51L352 0H32L26 32Q55 51 111 73V598L37 607L38 658L357 666Q472 666 545 608T619 463Q619 404 583 354T485 277L619 59L683 51ZM263 338Q297 331 328 331Q399
331 430 367T462 460Q462 548 402 588L263 573V338Z" />
<glyph unicode="S" glyph-name="S" horiz-adv-x="578" d="M539 181Q539 92 469 36T291 -20Q233 -20 165 -3T53 44L52 72Q52 155 68 230H140L189 90Q252 61 333 61Q388 87 388 145Q388 198 323 234L173 310Q54 378 54 481Q54 568 126 623T311 678Q411 678 509 642Q509
536 492 459H412L383 571Q325 601 244 599Q198 570 198 518Q198 488 224 464T332 402T452 339T515 274T539 181Z" />
<glyph unicode="T" glyph-name="T" horiz-adv-x="645" d="M636 664L637 635Q637 532 620 453H540L525 579L399 589V66L501 51L500 0H151L145 32Q167 46 247 77V589L120 579L105 453H25Q8 532 8 635L9 664L324 660L636 664Z" />
<glyph unicode="U" glyph-name="U" horiz-adv-x="737" d="M728 626Q691 604 644 585V286Q643 126 574 54T384 -19Q247 -19 167 62T85 287V596L8 607L9 658H315L321 626Q284 604 237 585V265Q237 170 280 121T398 72Q447 72 485 96Q534 142 536 276V595L451 607L452
658H722L728 626Z" />
<glyph unicode="V" glyph-name="V" horiz-adv-x="709" d="M711 626Q677 605 633 588L428 0Q367 -11 287 -14L73 596L-2 607L-1 658H309L315 626Q276 603 232 585L347 232L359 102H366L532 594L443 607L444 658H705L711 626Z" />
<glyph unicode="W" glyph-name="W" horiz-adv-x="984" d="M986 626L910 588L742 -1Q682 -12 600 -14L493 338L471 222L402 -1Q342 -12 261 -14L73 597L2 607L3 658H307L313 626Q284 608 231 586L326 235L334 102H339L449 483L408 619L553 652L662 244L673 102H675L809
593L712 607L713 658H980L986 626Z" />
<glyph unicode="X" glyph-name="X" horiz-adv-x="699" d="M704 51L703 0H403L397 32L458 63L326 258L199 63L282 51L281 0H8L2 32L85 73L271 340L98 597L32 607L33 658H315L321 626L268 598L385 426L489 596L414 607L415 658H666L672 626Q637 604 592 587L436
350L633 60L704 51Z" />
<glyph unicode="Y" glyph-name="Y" horiz-adv-x="647" d="M397 63L480 51L479 0H174L168 32Q199 51 249 72V247L61 598L-2 607L-1 658H266L272 626L216 597L310 420L337 335H343L474 596L400 607L401 658H645L651 626Q625 610 572 587L397 263V63Z" />
<glyph unicode="Z" glyph-name="Z" horiz-adv-x="632" d="M596 210Q591 122 570 0L72 -1L73 0L33 68L410 582L187 568L156 442H72Q61 501 61 586L64 658H556L589 591L220 88L460 94L506 223L596 210Z" />
<glyph unicode="[" glyph-name="bracketleft" horiz-adv-x="393" d="M363 652L233 622V-32L363 -62L357 -122H91V712H357L363 652Z" />
<glyph unicode="\" glyph-name="backslash" horiz-adv-x="403" d="M-18 681L88 723L396 -86L288 -126L-18 681Z" />
<glyph unicode="]" glyph-name="bracketright" horiz-adv-x="395" d="M302 712V-122H36L30 -62L160 -32V622L30 652L36 712H302Z" />
<glyph unicode="^" glyph-name="asciicircum" horiz-adv-x="511" d="M295 649L493 373L423 326L260 558H253L97 322L24 369L214 649H295Z" />
<glyph unicode="_" glyph-name="underscore" horiz-adv-x="532" d="M522 -213H10V-132H522V-213Z" />
<glyph unicode="`" glyph-name="grave" horiz-adv-x="294" d="M197 533Q78 647 26 688L122 771L272 593L197 533Z" />
<glyph unicode="a" glyph-name="a" horiz-adv-x="544" d="M535 48L413 -16Q389 -15 363 5T322 56L213 -13L182 -15Q119 -15 78 22T37 111Q37 183 115 225L306 230V319Q306 399 259 421Q213 418 184 408L166 300L82 297Q60 352 60 418L61 438Q116 462 193 480T310
499Q347 499 382 479T440 427Q451 408 452 351V111Q452 87 477 87L526 93L535 48ZM203 74Q243 75 306 99V171L281 172Q182 172 182 118Q182 91 203 74Z" />
<glyph unicode="b" glyph-name="b" horiz-adv-x="555" d="M315 488L351 491Q432 491 484 425T536 258Q536 137 458 59T256 -19Q165 -19 59 22V645L-15 653L-22 701Q61 733 156 736V735L204 691V411L315 488ZM316 67Q348 92 366 137T385 231Q385 294 356 338T278
383Q247 383 204 360V82Q240 65 285 65L316 67Z" />
<glyph unicode="c" glyph-name="c" horiz-adv-x="447" d="M290 -14L259 -16Q153 -16 84 55T14 237Q14 351 83 423T259 496Q320 496 369 468T442 388L333 313Q274 393 209 414Q156 357 156 262Q156 183 194 134T303 84Q354 84 411 111L432 61L290 -14Z" />
<glyph unicode="d" glyph-name="d" horiz-adv-x="575" d="M569 48L446 -16Q421 -15 394 8T352 65L239 -16Q142 -17 78 54T14 234Q14 347 88 421T276 495Q308 495 340 487V645L265 653L258 701Q344 734 436 736L485 691V114Q485 87 510 87L560 93L569 48ZM166 249Q166
183 195 140T277 96Q304 96 340 111V388Q292 412 245 412L227 411Q166 354 166 249Z" />
<glyph unicode="e" glyph-name="e" horiz-adv-x="484" d="M408 238L153 241Q157 167 199 126T306 85Q360 85 434 121L455 68L298 -13L266 -15Q156 -15 85 54T14 231Q14 343 86 419T261 496Q351 496 408 441T466 296L408 238ZM226 420Q174 390 159 310L332 319Q325
362 296 391T226 420Z" />
<glyph unicode="f" glyph-name="f" horiz-adv-x="366" d="M228 370V82Q283 68 319 49L315 0H18L15 34Q39 48 82 64V372L13 371L9 423Q45 445 82 460V547Q83 634 138 692T273 751Q347 751 410 702L331 575Q266 638 181 649L229 471H339L341 429L291 370H228Z" />
<glyph unicode="g" glyph-name="g" horiz-adv-x="569" d="M556 426L534 427Q494 427 461 414Q489 375 489 327Q489 251 424 203T261 155L227 157L175 112Q254 111 350 94T519 52Q529 23 529 -7Q529 -102 439 -172T228 -242Q144 -242 83 -205T20 -92L130 7L67 11L47
75Q99 132 159 171Q102 191 69 232T36 326Q36 401 101 451T264 501Q345 501 403 466Q437 547 531 555L556 426ZM308 227Q346 255 346 318Q346 363 319 397T250 431Q229 431 206 421Q178 393 178 330Q178 282 202 251T268 220Q284 220 308 227ZM248 -130Q302 -130
354 -110T430 -54Q340 -16 190 1Q136 -40 136 -72Q136 -99 167 -114T248 -130Z" />
<glyph unicode="h" glyph-name="h" horiz-adv-x="622" d="M538 78Q578 67 610 49L606 0H341L338 34L393 59V289Q393 387 328 387Q295 387 236 353V76Q271 65 297 49L293 0H20L17 34Q45 50 91 66V645L16 653L9 701Q95 734 187 736L236 692V401Q335 474 403 491Q449
488 489 460T535 388L538 331V78Z" />
<glyph unicode="i" glyph-name="i" horiz-adv-x="325" d="M171 558Q108 586 66 639Q99 705 152 745Q212 713 253 657Q225 597 171 558ZM236 79Q283 64 309 49L305 0H18L15 34Q45 51 91 67V402L16 411L9 459Q95 492 187 494L236 450V79Z" />
<glyph unicode="j" glyph-name="j" horiz-adv-x="309" d="M174 558Q107 588 69 639Q103 706 155 744Q215 712 256 656Q227 594 174 558ZM190 493L239 450V-50Q239 -111 176 -156T8 -216L-7 -173Q46 -155 70 -125T94 -40V402L19 411L12 459Q95 491 190 494V493Z" />
<glyph unicode="k" glyph-name="k" horiz-adv-x="610" d="M586 21L424 -9Q400 3 367 53L280 194L236 191V74Q270 62 291 49L287 0H20L17 34Q45 50 91 66V645L16 653L9 701Q95 734 187 736L236 692V243L273 267L385 407L315 411L308 459Q395 489 505 494L545 432L395
251L493 108Q519 74 559 74L577 75L586 21Z" />
<glyph unicode="l" glyph-name="l" horiz-adv-x="334" d="M236 79Q283 64 309 49L305 0H18L15 34Q45 51 91 67V645L16 653L9 701Q95 734 187 736L236 692V79Z" />
<glyph unicode="m" glyph-name="m" horiz-adv-x="915" d="M832 78Q881 63 902 49L898 0H634L631 34L687 60V289Q687 387 622 387Q590 387 533 355L534 77Q574 63 597 49L593 0H337L334 34L389 59V289Q389 387 324 387Q294 387 236 356V76Q271 65 297 49L293 0H21L18
34Q45 49 91 66V402L16 411L9 459Q95 492 187 494L236 446V404Q333 475 399 491Q431 489 466 471T521 421Q527 409 528 400Q629 474 697 491Q743 488 783 460T829 388L832 331V78Z" />
<glyph unicode="n" glyph-name="n" horiz-adv-x="623" d="M540 78Q589 63 611 49L607 0H343L340 34L395 59V289Q395 387 330 387Q299 387 236 352V76Q271 65 297 49L293 0H21L18 34Q45 49 91 66V402L16 411L9 459Q95 492 187 494L236 446V400Q337 474 405 491Q451
488 491 460T537 388L540 331V78Z" />
<glyph unicode="o" glyph-name="o" horiz-adv-x="515" d="M14 354T83 425T257 496T428 424T496 236Q496 120 430 50T260 -20Q155 -20 85 54T14 241ZM301 67Q348 100 348 224Q348 306 324 358T249 411Q219 411 198 397Q162 349 162 243Q162 163 188 113T267 62Q285
62 301 67Z" />
<glyph unicode="p" glyph-name="p" horiz-adv-x="585" d="M307 -10Q279 -10 235 -3V-120Q296 -139 326 -154L322 -203H27L24 -168L90 -143V402L16 411L9 459Q92 491 187 494V493L235 450V412L342 488L378 491Q459 491 511 425T563 258Q563 141 492 66T307 -10ZM306
383Q277 383 235 361V82Q272 68 319 68L344 69Q374 93 391 137T409 231Q409 293 381 338T306 383Z" />
<glyph unicode="q" glyph-name="q" horiz-adv-x="569" d="M484 -128Q513 -138 540 -154L536 -203H243L240 -168Q282 -146 339 -129V59L240 -13Q142 -14 78 58T14 235Q14 348 92 422T285 497Q357 497 440 461L525 473L542 425L484 380V-128ZM277 98Q305 98 339
113V391Q293 414 246 414L227 413Q166 356 166 252Q166 186 196 142T277 98Z" />
<glyph unicode="r" glyph-name="r" horiz-adv-x="472" d="M336 480Q360 489 386 489Q438 489 470 459Q465 349 433 270H357L337 382Q282 341 236 285V83Q306 69 344 49L340 0H20L17 34Q45 50 91 66V402L16 411L9 459Q95 492 187 494L236 450V368L336 480Z" />
<glyph unicode="s" glyph-name="s" horiz-adv-x="446" d="M167 377Q167 356 182 340T277 286T384 212T412 132Q412 65 359 23T218 -20Q120 -20 20 33L70 150Q162 82 256 57Q277 75 277 102Q277 125 259 142T165 196T63 266T36 344Q36 412 95 454T246 496Q332 496
392 464L393 436Q393 378 376 328H299L275 416Q237 426 205 424Q167 411 167 377Z" />
<glyph unicode="t" glyph-name="t" horiz-adv-x="382" d="M263 97Q291 97 347 110L358 61L204 -16Q161 -18 122 13T82 83V372L12 371L8 423Q46 450 89 471L139 601H207L224 471H361L363 428L314 370H227V143Q227 117 235 107T263 97Z" />
<glyph unicode="u" glyph-name="u" horiz-adv-x="612" d="M606 48L483 -16Q458 -15 430 9T389 67Q300 5 218 -16Q187 -14 153 5T97 55Q83 76 82 148V402L7 411L0 459Q86 492 178 494L227 450V176Q227 89 291 89Q327 89 377 114V403L314 413L307 461Q381 490 473
494L522 450V114Q522 87 547 87L597 93L606 48Z" />
<glyph unicode="v" glyph-name="v" horiz-adv-x="533" d="M540 431L488 405Q383 129 330 3Q295 -8 244 -8Q210 -8 182 -3L39 396L-22 423V475H238L241 431L192 406L253 213L267 126H285Q315 247 348 404L297 423L298 475H537L540 431Z" />
<glyph unicode="w" glyph-name="w" horiz-adv-x="768" d="M776 431Q758 419 725 405L593 5Q555 -8 499 -8Q470 -8 445 -3L386 166L317 5Q285 -7 225 -7L169 -3L34 398L-22 423V475H234L237 431L184 404L245 212L269 110H277L341 291L283 457L423 471L511 212L530
110H538L586 402L529 423L530 475H773L776 431Z" />
<glyph unicode="x" glyph-name="x" horiz-adv-x="569" d="M481 83Q526 71 563 49L559 0H307L304 34L345 54L256 172L206 73L257 49L253 0H2L-1 34Q21 47 58 61L205 239L88 393L20 423L21 475H261L264 431L237 416L308 319L353 411L313 423L314 475H539L542 431L483
403L356 253L481 83Z" />
<glyph unicode="y" glyph-name="y" horiz-adv-x="541" d="M549 431Q522 415 493 405Q433 192 389 74Q349 -22 286 -94T124 -222L47 -91Q179 -54 250 5Q209 15 175 38L46 394L-22 423V475H244L247 431L195 405L252 214L264 127H282Q325 264 346 403L294 423L295
475H546L549 431Z" />
<glyph unicode="z" glyph-name="z" horiz-adv-x="509" d="M430 173L485 163Q481 72 454 -15L122 21L74 -17L19 29L301 413L157 397L126 296H48Q38 349 38 410L42 475H409L442 497L490 451L221 88L397 102L430 173Z" />
<glyph unicode="{" glyph-name="braceleft" horiz-adv-x="492" d="M395 -145Q292 -138 222 -89T152 27V159Q151 223 132 243T65 268L71 327Q116 331 134 354T152 440V544Q152 622 219 670T402 729L408 632H299L307 449Q312 372 253 304V295Q311 226 307 149L299
-36L405 -48L395 -145Z" />
<glyph unicode="|" glyph-name="bar" horiz-adv-x="313" d="M100 735H211L212 -225H100V735Z" />
<glyph unicode="}" glyph-name="braceright" horiz-adv-x="496" d="M88 -48L194 -36L186 149Q182 226 240 295V304Q181 372 186 449L194 632H85L91 729Q205 720 272 671T341 550V439Q341 376 359 354T422 327L428 268Q380 264 361 244T341 159V27Q341 -40 271
-89T98 -145L88 -48Z" />
<glyph unicode="~" glyph-name="asciitilde" horiz-adv-x="603" d="M77 227Q123 297 150 327T204 358Q226 358 268 339T407 270L493 341L532 307Q484 231 459 201T408 171Q380 171 302 211T204 252Q181 252 124 191L77 227Z" />
<glyph unicode="&#xa0;" glyph-name="uni00A0" horiz-adv-x="265" />
<glyph unicode="&#xa1;" glyph-name="exclamdown" horiz-adv-x="332" d="M77 -191Q113 -210 169 -210Q227 -210 256 -189L214 248H117L77 -191ZM161 323Q237 356 253 415Q233 477 176 506Q109 488 80 429Q90 360 161 323Z" />
<glyph unicode="&#xa2;" glyph-name="cent" horiz-adv-x="455" d="M432 79L300 14V-116H214V11Q125 25 70 88T14 243Q14 336 69 401T214 480V601H300V481Q404 464 442 383L333 313Q275 387 209 407Q156 352 156 266Q156 192 195 146T303 100Q352 100 411 125L432 79Z" />
<glyph unicode="&#xa3;" glyph-name="sterling" horiz-adv-x="564" d="M522 206Q527 169 527 94Q527 29 523 0H20L14 32Q42 49 94 71Q132 144 132 215L129 253H30L24 286L67 324H113L99 367Q75 441 75 472Q75 553 143 611T316 670Q414 670 502 627H503L504 592Q504
508 491 443L414 444L365 568Q322 584 269 587Q227 560 227 492Q227 466 245 390L258 338H403L409 305L366 267H269Q274 171 215 87L403 97L448 212L522 206Z" />
<glyph unicode="&#xa4;" glyph-name="currency" horiz-adv-x="510" d="M434 358Q434 289 398 238L456 174L408 127L348 192Q306 165 254 165Q203 165 162 190L108 125L58 170L113 233Q73 287 73 357Q73 425 111 472L52 538L103 583L161 518Q209 545 258 545Q310
545 353 519L406 582L458 539L401 474Q434 425 434 358ZM306 250Q321 259 332 287T343 348Q343 395 318 429T236 463L202 459Q164 428 164 362Q164 314 191 280T270 246L306 250Z" />
<glyph unicode="&#xa5;" glyph-name="yen" horiz-adv-x="641" d="M375 237V182H505L511 149L468 117H375V63L458 51L457 0H152L146 32Q177 51 227 72V117H105L99 150L142 182H227V237H105L99 270L142 302H197L39 598L-24 607L-23 658H244L250 626L194 597L288
420L315 335H321L452 596L378 607L379 658H623L629 626Q603 610 550 587L396 302H505L511 269L468 237H375Z" />
<glyph unicode="&#xa6;" glyph-name="brokenbar" horiz-adv-x="313" d="M100 616H211V358H100V616ZM100 182H211V-76H100V182Z" />
<glyph unicode="&#xa7;" glyph-name="section" horiz-adv-x="534" d="M414 126Q475 79 475 13Q475 -57 417 -103T275 -149Q228 -149 171 -134T68 -89L126 23Q224 -52 335 -59Q364 -34 364 -5Q364 25 340 41T261 79L232 90Q128 137 95 174T62 259Q62 337 139 384Q71
434 71 503Q71 577 135 624T298 671Q381 671 466 638L467 606Q467 539 454 477L377 478L346 583Q311 594 275 594L238 591Q195 566 195 521Q195 481 250 455L321 424L389 391Q493 335 493 251Q493 176 414 126ZM171 284Q171 250 202 230T317 178L352 163Q381 190
381 218Q381 256 349 278T232 334L205 346Q171 317 171 284Z" />
<glyph unicode="&#xa8;" glyph-name="dieresis" horiz-adv-x="469" d="M199 634Q181 576 127 550Q67 568 40 621Q48 683 114 719Q185 690 199 634ZM429 634Q411 576 358 550Q297 568 270 621Q278 683 344 719Q415 690 429 634Z" />
<glyph unicode="&#xa9;" glyph-name="copyright" horiz-adv-x="800" d="M251 -23T147 79T43 332Q43 481 146 585T398 689T651 585T756 331Q756 184 653 81T400 -23ZM398 50Q518 50 601 133T684 333Q684 451 601 534T400 617T199 533T116 330Q116 212 197 131T398
50ZM430 135Q335 130 273 185T210 330Q210 416 266 472T412 529Q522 529 571 432L478 375Q438 444 371 463Q322 418 322 346Q322 294 356 259T453 224Q494 224 543 244L560 199L430 135Z" />
<glyph unicode="&#xaa;" glyph-name="ordfeminine" horiz-adv-x="429" d="M227 454V507Q227 558 195 573Q168 573 144 567L132 493L69 490Q56 544 59 585Q91 603 144 615T234 627Q291 625 323 572Q330 557 330 520V383Q330 365 347 365L380 368L385 339L300 293Q282
294 264 308T235 343L163 295L144 294Q96 294 70 317T43 375Q43 420 90 451L227 454ZM151 355Q179 355 227 371V413L201 415Q139 415 139 380Q139 365 151 355ZM398 255V196H30V255H398Z" />
<glyph unicode="&#xab;" glyph-name="guillemotleft" horiz-adv-x="582" d="M211 472L285 424L196 253L291 90L214 38L56 220V286L211 472ZM445 472L519 424L430 253L525 90L448 38L290 220V286L445 472Z" />
<glyph unicode="&#xac;" glyph-name="logicalnot" horiz-adv-x="592" d="M536 0H439V186H56V273H536V0Z" />
<glyph unicode="&#xad;" glyph-name="uni00AD" horiz-adv-x="427" d="M32 308L49 342H336L384 266L367 231H80L32 308Z" />
<glyph unicode="&#xae;" glyph-name="registered" horiz-adv-x="573" d="M406 773T482 697T558 504Q558 387 481 311T285 235Q165 235 89 311T13 504Q13 621 90 697T287 773ZM281 286Q379 286 441 346T504 503Q504 600 443 661T286 723T129 661T67 500Q67 404
126 345T281 286ZM404 406L434 402V376H341L284 477H249V407L289 402L288 376H145L141 395L179 412V613L144 617V645H291Q347 645 379 622T411 561Q411 509 353 486L404 406ZM249 515L270 513Q336 513 336 560Q336 594 303 609L249 603V515Z" />
<glyph unicode="&#xaf;" glyph-name="overscore" horiz-adv-x="433" d="M410 654L415 607L368 565H62L56 629Q105 654 169 654H410Z" />
<glyph unicode="&#xb0;" glyph-name="degree" horiz-adv-x="364" d="M30 513Q30 570 69 610T165 650Q224 650 264 610T304 513Q304 451 267 414T169 377Q111 377 71 415T30 513ZM203 448Q225 470 225 505Q225 535 207 558T159 581Q143 581 126 574Q107 549 107
518Q107 488 125 466T174 444Q190 444 203 448Z" />
<glyph unicode="&#xb1;" glyph-name="plusminus" horiz-adv-x="546" d="M490 332H322V153H225V332H56V417H225V595H322V417H490V332ZM483 0H60L59 86H483V0Z" />
<glyph unicode="&#xb2;" glyph-name="twosuperior" horiz-adv-x="308" d="M283 509L268 421H42L25 466L120 555Q178 612 178 649Q178 674 163 689T125 705L117 704L90 613H38Q28 653 28 696L29 712Q82 751 149 751Q203 751 236 722T269 650Q269 578 136 487L139
481L283 509Z" />
<glyph unicode="&#xb3;" glyph-name="threesuperior" horiz-adv-x="316" d="M217 588Q247 583 267 560T287 505Q287 460 249 436T154 411Q86 411 30 437L53 522Q122 471 175 461Q197 473 197 499Q197 519 180 534T131 549H98L96 597H118Q152 599 168 616T184 654T169
689T128 705L94 631L49 632Q41 662 41 703L42 720Q86 751 155 751Q205 751 238 725T271 662Q271 609 217 589V588Z" />
<glyph unicode="&#xb4;" glyph-name="acute" horiz-adv-x="294" d="M22 593L172 771L268 688Q221 649 113 549L97 533L22 593Z" />
<glyph unicode="&#xb5;" glyph-name="uni00B5" horiz-adv-x="582" d="M576 48L453 -16Q428 -15 401 8T359 66Q270 7 192 -14Q167 -14 138 20H134L204 -195Q190 -209 157 -219T90 -230Q69 -230 53 -226L52 471Q127 493 197 491V179Q197 86 270 90Q303 90 347 112V471Q422
493 492 491V114Q492 87 517 87L567 93L576 48Z" />
<glyph unicode="&#xb6;" glyph-name="paragraph" horiz-adv-x="666" d="M633 -165H546V-166H451V592L381 596H376V-166H281V-165H175L169 -126Q210 -107 281 -91V586Q166 552 166 430Q166 368 211 302L173 265Q93 290 47 349T0 477Q0 571 76 630T278 689L314 688L632
646L625 581L546 586V-105L634 -115L633 -165Z" />
<glyph unicode="&#xb7;" glyph-name="middot" horiz-adv-x="254" d="M126 185Q103 194 74 216T30 259Q65 329 107 353Q158 334 199 279Q176 219 126 185Z" />
<glyph unicode="&#xb8;" glyph-name="cedilla" horiz-adv-x="274" d="M119 -58Q176 -58 210 -83T245 -142Q245 -192 191 -227T50 -269L33 -235Q81 -219 107 -195T134 -149Q134 -130 115 -120T60 -112L33 -69L96 6H157L119 -58Z" />
<glyph unicode="&#xb9;" glyph-name="onesuperior" horiz-adv-x="259" d="M236 448L235 421H25L22 436Q48 454 86 465V661L26 637L8 672L138 747L179 721H178V462L236 448Z" />
<glyph unicode="&#xba;" glyph-name="ordmasculine" horiz-adv-x="428" d="M32 532T81 581T202 630Q272 630 318 581T365 455T319 332T199 285Q128 285 80 333T32 457ZM232 350Q241 354 250 378T259 440Q259 563 189 563L166 559Q155 551 147 523T139 458Q139
347 210 347L232 350ZM382 196H18V255H382V196Z" />
<glyph unicode="&#xbb;" glyph-name="guillemotright" horiz-adv-x="582" d="M133 38L56 90L151 253L62 424L136 472L291 286V220L133 38ZM367 38L290 90L385 253L296 424L370 472L525 286V220L367 38Z" />
<glyph unicode="&#xbc;" glyph-name="onequarter" horiz-adv-x="737" d="M236 367L235 340H25L22 355Q48 373 86 384V580L26 556L8 591L138 666L179 640H178V381L236 367ZM625 681L683 624L101 15L42 71L625 681ZM717 125V92L700 71H661V34L699 27L698 0H515L512
15Q538 31 575 41V71H440L422 114L586 330L661 316V125H717ZM575 124V178L587 239L506 123L575 124Z" />
<glyph unicode="&#xbd;" glyph-name="onehalf" horiz-adv-x="721" d="M236 367L235 340H25L22 355Q48 373 86 384V580L26 556L8 591L138 666L179 640H178V381L236 367ZM625 681L683 624L101 15L42 71L625 681ZM706 88L691 0H465L448 45L543 134Q601 191 601 228Q601
253 586 268T548 284L540 283L513 192H461Q451 232 451 275L452 291Q505 330 572 330Q626 330 659 301T692 229Q692 157 559 66L562 60L706 88Z" />
<glyph unicode="&#xbe;" glyph-name="threequarters" horiz-adv-x="778" d="M216 507Q246 502 266 479T286 424Q286 379 248 355T153 330Q85 330 29 356L52 441Q121 390 174 380Q196 392 196 418Q196 438 179 453T130 468H97L95 516H117Q151 518 167 535T183 573T168
608T127 624L93 550L48 551Q40 581 40 622L41 639Q85 670 154 670Q204 670 237 644T270 581Q270 528 216 508V507ZM665 681L723 624L141 15L82 71L665 681ZM757 125V92L740 71H701V34L739 27L738 0H555L552 15Q578 31 615 41V71H480L462 114L626 330L701 316V125H757ZM615
124V178L627 239L546 123L615 124Z" />
<glyph unicode="&#xbf;" glyph-name="questiondown" horiz-adv-x="622" d="M317 -233Q220 -233 157 -179T93 -40Q93 29 146 78L220 141Q263 181 268 227H392Q392 155 343 101L268 26Q237 -9 237 -49Q237 -112 291 -139Q333 -139 376 -122L417 10H503L512 -42Q525
-132 522 -157V-158Q429 -233 317 -233ZM320 307Q244 340 228 399Q248 461 305 490Q372 472 401 413Q391 344 320 307Z" />
<glyph unicode="&#xc0;" glyph-name="Agrave" horiz-adv-x="719" d="M726 51L725 0H410L404 32Q432 49 491 74L449 182H211L167 64L259 51L258 0H-14L-20 32Q10 51 63 72L284 615L272 646L403 682L655 61L726 51ZM420 258L330 494L240 258H420ZM451 688L199 787L257
898L494 761L451 688Z" />
<glyph unicode="&#xc1;" glyph-name="Aacute" horiz-adv-x="719" d="M726 51L725 0H410L404 32Q432 49 491 74L449 182H211L167 64L259 51L258 0H-14L-20 32Q10 51 63 72L284 615L272 646L403 682L655 61L726 51ZM420 258L330 494L240 258H420ZM453 898L511 787L259
688L216 761L453 898Z" />
<glyph unicode="&#xc2;" glyph-name="Acircumflex" horiz-adv-x="719" d="M726 51L725 0H410L404 32Q432 49 491 74L449 182H211L167 64L259 51L258 0H-14L-20 32Q10 51 63 72L284 615L272 646L403 682L655 61L726 51ZM420 258L330 494L240 258H420ZM292 909H403L554
754L501 702L347 812L200 702L144 754L292 909Z" />
<glyph unicode="&#xc3;" glyph-name="Atilde" horiz-adv-x="719" d="M726 51L725 0H410L404 32Q432 49 491 74L449 182H211L167 64L259 51L258 0H-14L-20 32Q10 51 63 72L284 615L272 646L403 682L655 61L726 51ZM420 258L330 494L240 258H420ZM129 758Q175 828
202 858T256 889Q278 889 320 870T459 801L545 872L584 838Q536 762 511 732T460 702Q432 702 354 742T256 783Q233 783 176 722L129 758Z" />
<glyph unicode="&#xc4;" glyph-name="Adieresis" horiz-adv-x="719" d="M726 51L725 0H410L404 32Q432 49 491 74L449 182H211L167 64L259 51L258 0H-14L-20 32Q10 51 63 72L284 615L272 646L403 682L655 61L726 51ZM420 258L330 494L240 258H420ZM312 813Q294
755 240 729Q180 747 153 800Q161 862 227 898Q298 869 312 813ZM542 813Q524 755 471 729Q410 747 383 800Q391 862 457 898Q528 869 542 813Z" />
<glyph unicode="&#xc5;" glyph-name="Aring" horiz-adv-x="719" d="M726 51L725 0H410L404 32Q432 49 491 74L449 182H211L167 64L259 51L258 0H-14L-20 32Q10 51 63 72L284 615L272 646L403 682L655 61L726 51ZM420 258L330 494L240 258H420ZM229 828Q229 878
262 912T346 947Q397 947 431 913T465 825Q465 775 433 743T351 710Q300 710 265 743T229 828ZM289 814Q289 788 306 772T349 756T389 772T405 813T389 855T347 872T306 856T289 814Z" />
<glyph unicode="&#xc6;" glyph-name="AE" horiz-adv-x="946" d="M903 199Q905 101 891 0L882 2V0H367L361 34Q377 45 446 75V182H253L193 64L281 51L280 0H8L2 34L26 48L97 79L371 599L305 607L306 658H895Q900 576 879 468H795L778 565L594 575V365L814 382V281L594
290V86L786 97L819 205L903 199ZM446 258V558L292 258H446Z" />
<glyph unicode="&#xc7;" glyph-name="Ccedilla" horiz-adv-x="582" d="M323 -58Q380 -58 414 -83T449 -142Q449 -192 395 -227T254 -269L237 -235Q285 -219 311 -195T338 -149Q338 -130 319 -120T264 -112L237 -69L285 -12Q158 5 85 94T11 321Q11 413 49 495T163
627T347 678Q463 678 553 615Q555 583 549 529T531 435H439L415 560Q346 590 264 590Q215 553 191 486T166 345Q166 226 224 156T381 89L546 143L570 72L365 -16H348L323 -58Z" />
<glyph unicode="&#xc8;" glyph-name="Egrave" horiz-adv-x="617" d="M567 199Q569 101 555 0H32L26 32Q55 51 111 73V598L37 607L38 658H560Q565 576 544 468H460L443 567L263 580V365L478 382V281L263 290V83L450 96L483 205L567 199ZM415 688L163 787L221 898L458
761L415 688Z" />
<glyph unicode="&#xc9;" glyph-name="Eacute" horiz-adv-x="617" d="M567 199Q569 101 555 0H32L26 32Q55 51 111 73V598L37 607L38 658H560Q565 576 544 468H460L443 567L263 580V365L478 382V281L263 290V83L450 96L483 205L567 199ZM417 898L475 787L223 688L180
761L417 898Z" />
<glyph unicode="&#xca;" glyph-name="Ecircumflex" horiz-adv-x="617" d="M567 199Q569 101 555 0H32L26 32Q55 51 111 73V598L37 607L38 658H560Q565 576 544 468H460L443 567L263 580V365L478 382V281L263 290V83L450 96L483 205L567 199ZM256 909H367L518 754L465
702L311 812L164 702L108 754L256 909Z" />
<glyph unicode="&#xcb;" glyph-name="Edieresis" horiz-adv-x="617" d="M567 199Q569 101 555 0H32L26 32Q55 51 111 73V598L37 607L38 658H560Q565 576 544 468H460L443 567L263 580V365L478 382V281L263 290V83L450 96L483 205L567 199ZM276 813Q258 755 204
729Q144 747 117 800Q125 862 191 898Q262 869 276 813ZM506 813Q488 755 435 729Q374 747 347 800Q355 862 421 898Q492 869 506 813Z" />
<glyph unicode="&#xcc;" glyph-name="Igrave" horiz-adv-x="382" d="M355 51L354 0H32L26 32Q55 51 111 73V596L34 607L35 658H341L347 626Q310 604 263 585V64L355 51ZM292 688L40 787L98 898L335 761L292 688Z" />
<glyph unicode="&#xcd;" glyph-name="Iacute" horiz-adv-x="382" d="M355 51L354 0H32L26 32Q55 51 111 73V596L34 607L35 658H341L347 626Q310 604 263 585V64L355 51ZM294 898L352 787L100 688L57 761L294 898Z" />
<glyph unicode="&#xce;" glyph-name="Icircumflex" horiz-adv-x="382" d="M355 51L354 0H32L26 32Q55 51 111 73V596L34 607L35 658H341L347 626Q310 604 263 585V64L355 51ZM132 909H243L394 754L341 702L187 812L40 702L-16 754L132 909Z" />
<glyph unicode="&#xcf;" glyph-name="Idieresis" horiz-adv-x="382" d="M355 51L354 0H32L26 32Q55 51 111 73V596L34 607L35 658H341L347 626Q310 604 263 585V64L355 51ZM153 813Q135 755 81 729Q21 747 -6 800Q2 862 68 898Q139 869 153 813ZM383 813Q365 755
312 729Q251 747 224 800Q232 862 298 898Q369 869 383 813Z" />
<glyph unicode="&#xd0;" glyph-name="Eth" horiz-adv-x="729" d="M362 666Q465 666 539 618T653 494T692 334Q692 188 602 96T361 0H32L26 32Q55 51 111 73V274H20L14 307L57 350H111V598L40 607L41 658Q185 666 362 666ZM339 83Q425 83 478 152T532 328Q532 411
498 483T408 588L263 573V350H399L405 317L362 274H263V95Q304 83 339 83Z" />
<glyph unicode="&#xd1;" glyph-name="Ntilde" horiz-adv-x="774" d="M747 626Q716 607 666 586L662 0L521 -13L205 472L220 349V64L308 51L307 0H32L26 32Q55 51 111 73V596L41 607L42 658H264L263 657L572 174L557 301V593L460 607L461 658H741L747 626ZM149
758Q195 828 222 858T276 889Q298 889 340 870T479 801L565 872L604 838Q556 762 531 732T480 702Q452 702 374 742T276 783Q253 783 196 722L149 758Z" />
<glyph unicode="&#xd2;" glyph-name="Ograve" horiz-adv-x="675" d="M334 678Q477 678 569 579T661 320Q661 167 572 74T342 -20Q198 -20 106 75T14 325Q14 481 104 579T334 678ZM248 576Q215 548 195 485T174 343Q174 222 222 145T359 68Q382 68 416 77Q454 107
477 172T500 317Q500 438 451 514T321 590Q287 590 248 576ZM441 688L189 787L247 898L484 761L441 688Z" />
<glyph unicode="&#xd3;" glyph-name="Oacute" horiz-adv-x="675" d="M334 678Q477 678 569 579T661 320Q661 167 572 74T342 -20Q198 -20 106 75T14 325Q14 481 104 579T334 678ZM248 576Q215 548 195 485T174 343Q174 222 222 145T359 68Q382 68 416 77Q454 107
477 172T500 317Q500 438 451 514T321 590Q287 590 248 576ZM443 898L501 787L249 688L206 761L443 898Z" />
<glyph unicode="&#xd4;" glyph-name="Ocircumflex" horiz-adv-x="675" d="M334 678Q477 678 569 579T661 320Q661 167 572 74T342 -20Q198 -20 106 75T14 325Q14 481 104 579T334 678ZM248 576Q215 548 195 485T174 343Q174 222 222 145T359 68Q382 68 416 77Q454
107 477 172T500 317Q500 438 451 514T321 590Q287 590 248 576ZM282 909H393L544 754L491 702L337 812L190 702L134 754L282 909Z" />
<glyph unicode="&#xd5;" glyph-name="Otilde" horiz-adv-x="675" d="M334 678Q477 678 569 579T661 320Q661 167 572 74T342 -20Q198 -20 106 75T14 325Q14 481 104 579T334 678ZM248 576Q215 548 195 485T174 343Q174 222 222 145T359 68Q382 68 416 77Q454 107
477 172T500 317Q500 438 451 514T321 590Q287 590 248 576ZM119 758Q165 828 192 858T246 889Q268 889 310 870T449 801L535 872L574 838Q526 762 501 732T450 702Q422 702 344 742T246 783Q223 783 166 722L119 758Z" />
<glyph unicode="&#xd6;" glyph-name="Odieresis" horiz-adv-x="675" d="M334 678Q477 678 569 579T661 320Q661 167 572 74T342 -20Q198 -20 106 75T14 325Q14 481 104 579T334 678ZM248 576Q215 548 195 485T174 343Q174 222 222 145T359 68Q382 68 416 77Q454
107 477 172T500 317Q500 438 451 514T321 590Q287 590 248 576ZM302 813Q284 755 230 729Q170 747 143 800Q151 862 217 898Q288 869 302 813ZM532 813Q514 755 461 729Q400 747 373 800Q381 862 447 898Q518 869 532 813Z" />
<glyph unicode="&#xd7;" glyph-name="multiply" horiz-adv-x="562" d="M496 396L344 240L495 84L430 20L280 176L132 20L67 83L218 238L65 396L132 458L282 302L430 458L496 396Z" />
<glyph unicode="&#xd8;" glyph-name="Oslash" horiz-adv-x="703" d="M547 600Q661 501 661 320Q661 167 572 74T342 -20Q281 -20 224 0L177 -87L107 -49L153 36Q89 79 52 152T14 325Q14 481 104 579T334 678Q415 678 480 644L532 740L601 700L547 600ZM174 343Q174
228 216 154L427 545Q384 590 321 590Q287 590 248 576Q215 548 195 485T174 343ZM416 77Q454 107 477 172T500 317Q500 401 475 466L273 92Q313 68 359 68Q382 68 416 77Z" />
<glyph unicode="&#xd9;" glyph-name="Ugrave" horiz-adv-x="737" d="M728 626Q691 604 644 585V286Q643 126 574 54T384 -19Q247 -19 167 62T85 287V596L8 607L9 658H315L321 626Q284 604 237 585V265Q237 170 280 121T398 72Q447 72 485 96Q534 142 536 276V595L451
607L452 658H722L728 626ZM474 688L222 787L280 898L517 761L474 688Z" />
<glyph unicode="&#xda;" glyph-name="Uacute" horiz-adv-x="737" d="M728 626Q691 604 644 585V286Q643 126 574 54T384 -19Q247 -19 167 62T85 287V596L8 607L9 658H315L321 626Q284 604 237 585V265Q237 170 280 121T398 72Q447 72 485 96Q534 142 536 276V595L451
607L452 658H722L728 626ZM476 898L534 787L282 688L239 761L476 898Z" />
<glyph unicode="&#xdb;" glyph-name="Ucircumflex" horiz-adv-x="737" d="M728 626Q691 604 644 585V286Q643 126 574 54T384 -19Q247 -19 167 62T85 287V596L8 607L9 658H315L321 626Q284 604 237 585V265Q237 170 280 121T398 72Q447 72 485 96Q534 142 536
276V595L451 607L452 658H722L728 626ZM315 909H426L577 754L524 702L370 812L223 702L167 754L315 909Z" />
<glyph unicode="&#xdc;" glyph-name="Udieresis" horiz-adv-x="737" d="M728 626Q691 604 644 585V286Q643 126 574 54T384 -19Q247 -19 167 62T85 287V596L8 607L9 658H315L321 626Q284 604 237 585V265Q237 170 280 121T398 72Q447 72 485 96Q534 142 536 276V595L451
607L452 658H722L728 626ZM335 813Q317 755 263 729Q203 747 176 800Q184 862 250 898Q321 869 335 813ZM565 813Q547 755 494 729Q433 747 406 800Q414 862 480 898Q551 869 565 813Z" />
<glyph unicode="&#xdd;" glyph-name="Yacute" horiz-adv-x="647" d="M397 63L480 51L479 0H174L168 32Q199 51 249 72V247L61 598L-2 607L-1 658H266L272 626L216 597L310 420L337 335H343L474 596L400 607L401 658H645L651 626Q625 610 572 587L397 263V63ZM443
898L501 787L249 688L206 761L443 898Z" />
<glyph unicode="&#xde;" glyph-name="Thorn" horiz-adv-x="626" d="M268 147V64L360 51L359 0H34L28 34L51 47L116 76V587L36 599L37 650H347L353 616Q333 603 268 575V522H360Q465 522 532 468T599 332Q599 254 535 203T368 148L268 147ZM268 425V230Q291 225
315 225Q382 225 414 255T447 332Q447 402 382 443L268 425Z" />
<glyph unicode="&#xdf;" glyph-name="germandbls" horiz-adv-x="612" d="M407 367Q412 346 434 328L527 258Q593 204 593 131Q593 62 542 22T412 -18Q344 -18 271 13L311 136Q369 87 437 73Q456 100 456 122Q456 146 441 164T383 212T314 268T285 334Q335 412
352 448T369 520Q369 558 344 590Q326 595 303 595Q251 595 218 573L226 436V0H14L11 34Q34 48 82 65V368L9 367L5 419Q42 446 82 462Q82 552 116 598T201 666T299 687Q385 687 445 635T506 513Q506 433 407 367Z" />
<glyph unicode="&#xe0;" glyph-name="agrave" horiz-adv-x="544" d="M535 48L413 -16Q389 -15 363 5T322 56L213 -13L182 -15Q119 -15 78 22T37 111Q37 183 115 225L306 230V319Q306 399 259 421Q213 418 184 408L166 300L82 297Q60 352 60 418L61 438Q116 462
193 480T310 499Q347 499 382 479T440 427Q451 408 452 351V111Q452 87 477 87L526 93L535 48ZM203 74Q243 75 306 99V171L281 172Q182 172 182 118Q182 91 203 74ZM279 530Q160 644 108 685L204 768L354 590L279 530Z" />
<glyph unicode="&#xe1;" glyph-name="aacute" horiz-adv-x="544" d="M535 48L413 -16Q389 -15 363 5T322 56L213 -13L182 -15Q119 -15 78 22T37 111Q37 183 115 225L306 230V319Q306 399 259 421Q213 418 184 408L166 300L82 297Q60 352 60 418L61 438Q116 462
193 480T310 499Q347 499 382 479T440 427Q451 408 452 351V111Q452 87 477 87L526 93L535 48ZM203 74Q243 75 306 99V171L281 172Q182 172 182 118Q182 91 203 74ZM165 590L315 768L411 685Q364 646 256 546L240 530L165 590Z" />
<glyph unicode="&#xe2;" glyph-name="acircumflex" horiz-adv-x="544" d="M535 48L413 -16Q389 -15 363 5T322 56L213 -13L182 -15Q119 -15 78 22T37 111Q37 183 115 225L306 230V319Q306 399 259 421Q213 418 184 408L166 300L82 297Q60 352 60 418L61 438Q116
462 193 480T310 499Q347 499 382 479T440 427Q451 408 452 351V111Q452 87 477 87L526 93L535 48ZM203 74Q243 75 306 99V171L281 172Q182 172 182 118Q182 91 203 74ZM211 731H316L445 581L393 532L260 640L139 528L81 574L211 731Z" />
<glyph unicode="&#xe3;" glyph-name="atilde" horiz-adv-x="544" d="M535 48L413 -16Q389 -15 363 5T322 56L213 -13L182 -15Q119 -15 78 22T37 111Q37 183 115 225L306 230V319Q306 399 259 421Q213 418 184 408L166 300L82 297Q60 352 60 418L61 438Q116 462
193 480T310 499Q347 499 382 479T440 427Q451 408 452 351V111Q452 87 477 87L526 93L535 48ZM203 74Q243 75 306 99V171L281 172Q182 172 182 118Q182 91 203 74ZM56 587Q103 665 133 696T196 727Q233 727 355 637L434 719L482 684Q406 541 354 541Q329 541 268
582T191 624Q169 624 106 548L56 587Z" />
<glyph unicode="&#xe4;" glyph-name="adieresis" horiz-adv-x="544" d="M535 48L413 -16Q389 -15 363 5T322 56L213 -13L182 -15Q119 -15 78 22T37 111Q37 183 115 225L306 230V319Q306 399 259 421Q213 418 184 408L166 300L82 297Q60 352 60 418L61 438Q116
462 193 480T310 499Q347 499 382 479T440 427Q451 408 452 351V111Q452 87 477 87L526 93L535 48ZM203 74Q243 75 306 99V171L281 172Q182 172 182 118Q182 91 203 74ZM224 631Q206 573 152 547Q92 565 65 618Q73 680 139 716Q210 687 224 631ZM454 631Q436 573
383 547Q322 565 295 618Q303 680 369 716Q440 687 454 631Z" />
<glyph unicode="&#xe5;" glyph-name="aring" horiz-adv-x="544" d="M535 48L413 -16Q389 -15 363 5T322 56L213 -13L182 -15Q119 -15 78 22T37 111Q37 183 115 225L306 230V319Q306 399 259 421Q213 418 184 408L166 300L82 297Q60 352 60 418L61 438Q116 462
193 480T310 499Q347 499 382 479T440 427Q451 408 452 351V111Q452 87 477 87L526 93L535 48ZM203 74Q243 75 306 99V171L281 172Q182 172 182 118Q182 91 203 74ZM141 646Q141 696 174 730T258 765Q309 765 343 731T377 643Q377 593 345 561T263 528Q212 528
177 561T141 646ZM201 632Q201 606 218 590T261 574T301 590T317 631T301 673T259 690T218 674T201 632Z" />
<glyph unicode="&#xe6;" glyph-name="ae" horiz-adv-x="778" d="M698 238L444 241Q448 161 490 123T598 85Q652 85 728 121L749 68L592 -13L561 -15Q437 -15 366 69L213 -13L182 -15Q119 -15 78 22T37 111Q37 183 115 225L307 230L306 327Q304 396 259 418Q217
416 184 404L166 296L78 297Q60 350 60 411L61 434Q119 460 194 478T318 497Q363 496 408 443Q474 496 555 496Q645 496 702 441T760 296L755 295L698 238ZM520 420Q466 389 449 310L626 319Q619 362 590 391T520 420ZM203 74Q242 75 337 110Q320 142 315 171H310L283
172Q182 172 182 118Q182 91 203 74Z" />
<glyph unicode="&#xe7;" glyph-name="ccedilla" horiz-adv-x="447" d="M266 -16L241 -58Q298 -58 332 -83T367 -142Q367 -192 313 -227T172 -269L155 -235Q203 -219 229 -195T256 -149Q256 -130 237 -120T182 -112L155 -69L204 -10Q119 8 67 74T14 237Q14 351
83 423T259 496Q320 496 369 468T442 388L333 313Q274 393 209 414Q156 357 156 262Q156 183 194 134T303 84Q354 84 411 111L432 61L290 -14L266 -16Z" />
<glyph unicode="&#xe8;" glyph-name="egrave" horiz-adv-x="484" d="M408 238L153 241Q157 167 199 126T306 85Q360 85 434 121L455 68L298 -13L266 -15Q156 -15 85 54T14 231Q14 343 86 419T261 496Q351 496 408 441T466 296L408 238ZM226 420Q174 390 159 310L332
319Q325 362 296 391T226 420ZM275 530Q156 644 104 685L200 768L350 590L275 530Z" />
<glyph unicode="&#xe9;" glyph-name="eacute" horiz-adv-x="484" d="M408 238L153 241Q157 167 199 126T306 85Q360 85 434 121L455 68L298 -13L266 -15Q156 -15 85 54T14 231Q14 343 86 419T261 496Q351 496 408 441T466 296L408 238ZM226 420Q174 390 159 310L332
319Q325 362 296 391T226 420ZM161 590L311 768L407 685Q360 646 252 546L236 530L161 590Z" />
<glyph unicode="&#xea;" glyph-name="ecircumflex" horiz-adv-x="484" d="M408 238L153 241Q157 167 199 126T306 85Q360 85 434 121L455 68L298 -13L266 -15Q156 -15 85 54T14 231Q14 343 86 419T261 496Q351 496 408 441T466 296L408 238ZM226 420Q174 390 159
310L332 319Q325 362 296 391T226 420ZM207 731H312L441 581L389 532L256 640L135 528L77 574L207 731Z" />
<glyph unicode="&#xeb;" glyph-name="edieresis" horiz-adv-x="484" d="M408 238L153 241Q157 167 199 126T306 85Q360 85 434 121L455 68L298 -13L266 -15Q156 -15 85 54T14 231Q14 343 86 419T261 496Q351 496 408 441T466 296L408 238ZM226 420Q174 390 159
310L332 319Q325 362 296 391T226 420ZM220 631Q202 573 148 547Q88 565 61 618Q69 680 135 716Q206 687 220 631ZM450 631Q432 573 379 547Q318 565 291 618Q299 680 365 716Q436 687 450 631Z" />
<glyph unicode="&#xec;" glyph-name="igrave" horiz-adv-x="313" d="M236 76Q271 65 297 49L293 0H21L18 34Q45 49 91 66V398L16 407L9 455Q95 488 187 490L236 446V76ZM169 530Q50 644 -2 685L94 768L244 590L169 530Z" />
<glyph unicode="&#xed;" glyph-name="iacute" horiz-adv-x="313" d="M236 76Q271 65 297 49L293 0H21L18 34Q45 49 91 66V398L16 407L9 455Q95 488 187 490L236 446V76ZM55 590L205 768L301 685Q254 646 146 546L130 530L55 590Z" />
<glyph unicode="&#xee;" glyph-name="icircumflex" horiz-adv-x="313" d="M236 76Q271 65 297 49L293 0H21L18 34Q45 49 91 66V398L16 407L9 455Q95 488 187 490L236 446V76ZM101 731H206L335 581L283 532L150 640L29 528L-29 574L101 731Z" />
<glyph unicode="&#xef;" glyph-name="idieresis" horiz-adv-x="313" d="M236 76Q271 65 297 49L293 0H21L18 34Q45 49 91 66V398L16 407L9 455Q95 488 187 490L236 446V76ZM114 631Q96 573 42 547Q-18 565 -45 618Q-37 680 29 716Q100 687 114 631ZM344 631Q326
573 273 547Q212 565 185 618Q193 680 259 716Q330 687 344 631Z" />
<glyph unicode="&#xf0;" glyph-name="eth" horiz-adv-x="524" d="M403 616Q454 525 481 431T509 258Q509 132 442 53T269 -26Q164 -26 91 48T18 235Q18 339 82 409T241 479Q294 479 335 453Q316 508 289 564L213 529L154 564L145 599L242 645L192 717L295 770Q321
742 353 697L442 739L486 654L403 616ZM310 61Q369 120 369 251Q369 296 360 341Q299 393 233 398Q203 376 184 328T165 229Q165 151 205 104T310 61Z" />
<glyph unicode="&#xf1;" glyph-name="ntilde" horiz-adv-x="623" d="M540 78Q589 63 611 49L607 0H343L340 34L395 59V289Q395 387 330 387Q299 387 236 352V76Q271 65 297 49L293 0H21L18 34Q45 49 91 66V402L16 411L9 459Q95 492 187 494L236 446V400Q337 474
405 491Q451 488 491 460T537 388L540 331V78ZM108 587Q155 665 185 696T248 727Q285 727 407 637L486 719L534 684Q458 541 406 541Q381 541 320 582T243 624Q221 624 158 548L108 587Z" />
<glyph unicode="&#xf2;" glyph-name="ograve" horiz-adv-x="515" d="M14 354T83 425T257 496T428 424T496 236Q496 120 430 50T260 -20Q155 -20 85 54T14 241ZM301 67Q348 100 348 224Q348 306 324 358T249 411Q219 411 198 397Q162 349 162 243Q162 163 188 113T267
62Q285 62 301 67ZM275 530Q156 644 104 685L200 768L350 590L275 530Z" />
<glyph unicode="&#xf3;" glyph-name="oacute" horiz-adv-x="515" d="M14 354T83 425T257 496T428 424T496 236Q496 120 430 50T260 -20Q155 -20 85 54T14 241ZM301 67Q348 100 348 224Q348 306 324 358T249 411Q219 411 198 397Q162 349 162 243Q162 163 188 113T267
62Q285 62 301 67ZM161 590L311 768L407 685Q360 646 252 546L236 530L161 590Z" />
<glyph unicode="&#xf4;" glyph-name="ocircumflex" horiz-adv-x="515" d="M14 354T83 425T257 496T428 424T496 236Q496 120 430 50T260 -20Q155 -20 85 54T14 241ZM301 67Q348 100 348 224Q348 306 324 358T249 411Q219 411 198 397Q162 349 162 243Q162 163
188 113T267 62Q285 62 301 67ZM207 731H312L441 581L389 532L256 640L135 528L77 574L207 731Z" />
<glyph unicode="&#xf5;" glyph-name="otilde" horiz-adv-x="515" d="M14 354T83 425T257 496T428 424T496 236Q496 120 430 50T260 -20Q155 -20 85 54T14 241ZM301 67Q348 100 348 224Q348 306 324 358T249 411Q219 411 198 397Q162 349 162 243Q162 163 188 113T267
62Q285 62 301 67ZM52 587Q99 665 129 696T192 727Q229 727 351 637L430 719L478 684Q402 541 350 541Q325 541 264 582T187 624Q165 624 102 548L52 587Z" />
<glyph unicode="&#xf6;" glyph-name="odieresis" horiz-adv-x="515" d="M14 354T83 425T257 496T428 424T496 236Q496 120 430 50T260 -20Q155 -20 85 54T14 241ZM301 67Q348 100 348 224Q348 306 324 358T249 411Q219 411 198 397Q162 349 162 243Q162 163 188
113T267 62Q285 62 301 67ZM220 631Q202 573 148 547Q88 565 61 618Q69 680 135 716Q206 687 220 631ZM450 631Q432 573 379 547Q318 565 291 618Q299 680 365 716Q436 687 450 631Z" />
<glyph unicode="&#xf7;" glyph-name="divide" horiz-adv-x="598" d="M381 430Q362 371 310 346Q257 359 222 417Q229 475 296 514Q363 487 381 430ZM542 204H56V292H542V204ZM381 63Q361 4 310 -21Q255 -7 222 51Q229 109 296 148Q363 121 381 63Z" />
<glyph unicode="&#xf8;" glyph-name="oslash" horiz-adv-x="521" d="M436 416Q496 345 496 236Q496 120 430 50T260 -20Q209 -20 163 0L109 -82L35 -31L88 50Q14 122 14 241Q14 354 83 425T257 496Q316 496 365 471L406 533L481 485L436 416ZM162 243Q162 205
168 172L308 383Q285 411 249 411Q219 411 198 397Q162 349 162 243ZM301 67Q348 100 348 224L345 278L215 79Q237 62 267 62Q285 62 301 67Z" />
<glyph unicode="&#xf9;" glyph-name="ugrave" horiz-adv-x="612" d="M606 48L483 -16Q458 -15 430 9T389 67Q300 5 218 -16Q187 -14 153 5T97 55Q83 76 82 148V402L7 411L0 459Q86 492 178 494L227 450V176Q227 89 291 89Q327 89 377 114V403L314 413L307 461Q381
490 473 494L522 450V114Q522 87 547 87L597 93L606 48ZM302 530Q183 644 131 685L227 768L377 590L302 530Z" />
<glyph unicode="&#xfa;" glyph-name="uacute" horiz-adv-x="612" d="M606 48L483 -16Q458 -15 430 9T389 67Q300 5 218 -16Q187 -14 153 5T97 55Q83 76 82 148V402L7 411L0 459Q86 492 178 494L227 450V176Q227 89 291 89Q327 89 377 114V403L314 413L307 461Q381
490 473 494L522 450V114Q522 87 547 87L597 93L606 48ZM188 590L338 768L434 685Q387 646 279 546L263 530L188 590Z" />
<glyph unicode="&#xfb;" glyph-name="ucircumflex" horiz-adv-x="612" d="M606 48L483 -16Q458 -15 430 9T389 67Q300 5 218 -16Q187 -14 153 5T97 55Q83 76 82 148V402L7 411L0 459Q86 492 178 494L227 450V176Q227 89 291 89Q327 89 377 114V403L314 413L307
461Q381 490 473 494L522 450V114Q522 87 547 87L597 93L606 48ZM234 731H339L468 581L416 532L283 640L162 528L104 574L234 731Z" />
<glyph unicode="&#xfc;" glyph-name="udieresis" horiz-adv-x="612" d="M606 48L483 -16Q458 -15 430 9T389 67Q300 5 218 -16Q187 -14 153 5T97 55Q83 76 82 148V402L7 411L0 459Q86 492 178 494L227 450V176Q227 89 291 89Q327 89 377 114V403L314 413L307 461Q381
490 473 494L522 450V114Q522 87 547 87L597 93L606 48ZM247 631Q229 573 175 547Q115 565 88 618Q96 680 162 716Q233 687 247 631ZM477 631Q459 573 406 547Q345 565 318 618Q326 680 392 716Q463 687 477 631Z" />
<glyph unicode="&#xfd;" glyph-name="yacute" horiz-adv-x="541" d="M549 431Q522 415 493 405Q433 192 389 74Q349 -22 286 -94T124 -222L47 -91Q179 -54 250 5Q209 15 175 38L46 394L-22 423V475H244L247 431L195 405L252 214L264 127H282Q325 264 346 403L294
423L295 475H546L549 431ZM179 590L329 768L425 685Q378 646 270 546L254 530L179 590Z" />
<glyph unicode="&#xfe;" glyph-name="thorn" horiz-adv-x="564" d="M265 -19L211 -15V-120Q272 -139 302 -154L298 -203H3L0 -168L66 -143V637L-15 652L-22 700Q60 731 163 736L212 691V410L324 488L360 491Q441 491 493 425T545 258Q545 137 467 59T265 -19ZM287
383Q254 383 212 359V82Q253 64 293 64L325 67Q357 92 375 137T394 231Q394 294 365 338T287 383Z" />
<glyph unicode="&#xff;" glyph-name="ydieresis" horiz-adv-x="541" d="M549 431Q522 415 493 405Q433 192 389 74Q349 -22 286 -94T124 -222L47 -91Q179 -54 250 5Q209 15 175 38L46 394L-22 423V475H244L247 431L195 405L252 214L264 127H282Q325 264 346 403L294
423L295 475H546L549 431ZM238 631Q220 573 166 547Q106 565 79 618Q87 680 153 716Q224 687 238 631ZM468 631Q450 573 397 547Q336 565 309 618Q317 680 383 716Q454 687 468 631Z" />
<glyph unicode="&#x2013;" glyph-name="endash" horiz-adv-x="569" d="M517 312L522 269L474 218H44L37 285Q94 311 148 312H517Z" />
<glyph unicode="&#x2014;" glyph-name="emdash" horiz-adv-x="1010" d="M959 312L963 269L916 218H44L37 285Q94 311 149 312H959Z" />
<glyph unicode="&#x2018;" glyph-name="quoteleft" horiz-adv-x="244" d="M204 712Q144 665 136 601L192 553Q187 524 164 497T110 459Q26 493 26 570Q26 622 65 673T169 756L204 712Z" />
<glyph unicode="&#x2019;" glyph-name="quoteright" horiz-adv-x="245" d="M40 503Q99 551 108 615L53 663Q58 692 81 719T134 756Q219 725 219 644Q219 592 180 542T75 459L40 503Z" />
<glyph unicode="&#x201a;" glyph-name="quotesinglbase" horiz-adv-x="245" d="M40 -97Q99 -49 108 15L53 63Q58 92 81 119T134 156Q219 125 219 44Q219 -8 180 -58T75 -141L40 -97Z" />
<glyph unicode="&#x201c;" glyph-name="quotedblleft" horiz-adv-x="445" d="M204 712Q144 665 136 601L192 553Q187 524 164 497T110 459Q26 493 26 570Q26 622 65 673T169 756L204 712ZM405 712Q345 665 337 601L393 553Q388 524 365 497T311 459Q227 493 227
570Q227 622 266 673T370 756L405 712Z" />
<glyph unicode="&#x201d;" glyph-name="quotedblright" horiz-adv-x="445" d="M40 503Q99 551 108 615L53 663Q58 692 81 719T134 756Q219 725 219 644Q219 592 180 542T75 459L40 503ZM240 503Q299 551 308 615L253 663Q258 692 281 719T334 756Q419 725 419
644Q419 592 380 542T275 459L240 503Z" />
<glyph unicode="&#x201e;" glyph-name="quotedblbase" horiz-adv-x="445" d="M40 -97Q99 -49 108 15L53 63Q58 92 81 119T134 156Q219 125 219 44Q219 -8 180 -58T75 -141L40 -97ZM240 -97Q299 -49 308 15L253 63Q258 92 281 119T334 156Q419 125 419 44Q419 -8
380 -58T275 -141L240 -97Z" />
<glyph unicode="&#x2022;" glyph-name="bullet" horiz-adv-x="415" d="M348 258Q321 158 222 109Q112 141 67 235Q87 349 198 407Q312 363 348 258Z" />
<glyph unicode="&#x2039;" glyph-name="guilsinglleft" horiz-adv-x="347" d="M211 472L285 424L190 253L291 90L214 38L56 220V286L211 472Z" />
<glyph unicode="&#x203a;" glyph-name="guilsinglright" horiz-adv-x="347" d="M291 220L133 38L56 90L157 253L62 424L136 472L291 286V220Z" />
</font>
</defs>
</svg>
